Bit Torrent Scene a public file sharing platform Home Categories Blog About

advertising ( remove )

A Sound Of Thunder (2005)[BRRip 1080p x264 by alE13 AC3/DTS][Lektor i Napisy PL/Eng][Eng]

DOWNLOAD TORRENT

Posted by alE13 •1516 on August 16, 2016 in Movies » Sci-Fi , verified torrent

Size: 8.46 GB , Seeds: 33 , Peers: 34 ( Updated August 17, 2016 - Refresh )

* Download via Magnet Link * To download files you need a Bittorrent Client ,

advertising ( remove )

External Info

Trailer | Wikipedia | Other Info

Internal Files

A Sound of Thunder (2005)-alE13
cover.jpg   281.5 KB
Nostalgie.jpg   138.36 KB
Torrent downloaded from alE13 torrents at BTScene.org.txt   120 Byte
Torrent downloaded from demonoid.pw.txt   46 Byte
Torrent downloaded from - www.aletorrenty.pl   43 Byte
A Sound Of Thunder (2005)-alE13.rar   64.25 KB
A Sound Of Thunder (2005)-alE13.mkv   8.39 GB
sample.mkv   70.32 MB
txt.jpg   140.48 KB
poster.jpg   118.43 KB

Hash Code

6539b639a62c1b5b185c03853c47b5d8e86e7ef6

Description

SCREENSHOT

https://www.filmweb.pl/film/I+uderzy%C5%82+grom-2005-92296
https://www.imdb.com/title/tt0318081/

reżyseria: Peter Hyams
scenariusz: Thomas Dean Donnelly,Joshua Oppenheimer,Gregory Poirier
gatunek: Przygodowy,Sci-Fi
produkcja: Czechy,Niemcy,USA,Wielka Brytania
premiera: 26-08-2005
muzyka: Nick Glennie-Smith
zdjęcia: Peter Hyams
czas: 1h 41mn

opis:

When a scientist sent back to the prehistoric era strays off the path he causes a chain of events that alters history in disastrous ways.

Grupa myśliwych cofa się w czasie, aby polować na dinozaury. Zabicie motyla przez jednego z nich zmienia jednak przyszłość.

SCREENSHOT
SCREENSHOT
SCREENSHOT
SCREENSHOT

obsada:

Edward Burns, Ben Kingsley, Catherine McCormack

dane techniczne:

A Sound Of Thunder (2005)-alE13.mkv
Format : Matroska
Format version : Version 4 / Version 2
File size : 8.39 GiB
Duration : 1h 41mn
Overall bit rate : 11.9 Mbps
Movie name : A Sound Of Thunder (2005)-alE13
Encoded date : UTC 2016-08-16 03:07:26
Writing application : mkvmerge v8.1.0 ('Psychedelic Postcard') 64bit
Writing library : libebml v1.3.1 + libmatroska v1.4.2
Cover : Yes
Attachments : cover.jpg

Video
ID : 1
Format : AVC
Format/Info : Advanced Video Codec
Format profile : [email protected]
Format settings, CABAC : Yes
Format settings, ReFrames : 2 frames
Codec ID : V_MPEG4/ISO/AVC
Duration : 1h 41mn
Bit rate : 10.1 Mbps
Width : 1 920 pixels
Height : 800 pixels
Display aspect ratio : 2.40:1
Frame rate mode : Constant
Frame rate : 23.976 (24000/1001) fps
Color space : YUV
Chroma subsampling : 4:2:0
Bit depth : 8 bits
Scan type : Progressive
Bits/(Pixel*Frame) : 0.274
Stream size : 7.14 GiB (85%)
Title : A Sound Of Thunder (2005)-alE13
Writing library : x264 core 142
Default : Yes
Forced : No
Color range : Limited
Color primaries : BT.709
Transfer characteristics : BT.709
Matrix coefficients : BT.709

Audio #1
ID : 2
Format : DTS
Format/Info : Digital Theater Systems
Mode : 16
Format settings, Endianness : Big
Codec ID : A_DTS
Duration : 1h 41mn
Bit rate mode : Constant
Bit rate : 1 509 Kbps
Channel(s) : 6 channels
Channel positions : Front: L C R, Side: L R, LFE
Sampling rate : 48.0 KHz
Frame rate : 93.750 fps (512 spf)
Bit depth : 16 bits
Compression mode : Lossy
Stream size : 1.07 GiB (13%)
Title : A Sound Of Thunder (2005)-alE13_DTS
Language : English
Default : No
Forced : No

Audio #2
ID : 3
Format : AC-3
Format/Info : Audio Coding 3
Mode extension : CM (complete main)
Format settings, Endianness : Big
Codec ID : A_AC3
Duration : 1h 41mn
Bit rate mode : Constant
Bit rate : 256 Kbps
Channel(s) : 2 channels
Channel positions : Front: L R
Sampling rate : 48.0 KHz
Frame rate : 31.250 fps (1536 spf)
Compression mode : Lossy
Delay relative to video : 16ms
Stream size : 185 MiB (2%)
Title : A Sound Of Thunder (2005)-alE13_AC3
Language : Polish
Default : Yes
Forced : No

Text #1
ID : 4
Format : UTF-8
Codec ID : S_TEXT/UTF8
Codec ID/Info : UTF-8 Plain Text
Duration : 1h 32mn
Bit rate : 63 bps
Count of elements : 1417
Stream size : 43.2 KiB (0%)
Title : A Sound Of Thunder (2005)-alE13
Language : English
Default : No
Forced : No

Text #2
ID : 5
Format : UTF-8
Codec ID : S_TEXT/UTF8
Codec ID/Info : UTF-8 Plain Text
Duration : 1h 33mn
Bit rate : 57 bps
Count of elements : 1002
Stream size : 39.6 KiB (0%)
Title : A Sound Of Thunder (2005)-alE13
Language : Polish
Default : Yes
Forced : No

Scrape History ( seeds + peers )

Trackers

Refresh Leechers : Updated August 17, 2016

1. https://tracker.aletorrenty.pl:2710/announce

2. https://tracker.filetracker.pl:8089/announce

3. https://tracker.torrenty.org:6969/announce

4. https://tracker.ex.ua/announce

5. udp://inferno.demonoid.ooo:3392/announce

6. https://torrent.gresille.org/announce.php

7. udp://tracker.aletorrenty.pl:2710/announce

8. udp://tracker.openbittorrent.com:80/announce

9. udp://tracker.leechers-paradise.org:6969/announce

Comments

You must log in to add a comment.

Embed Code

Sharing Widget

Related torrents

FILENAME SIZE SEEDS PEERS ADDED UPD
[i] Pink Floyd - Delicate Sound Of Thunder 1988 Rock [Flac-Lossless] 605.3 MB 19 0 1 month 3 weeks
[i] Pink Floyd - Delicate Sound of Thunder (1988) Freedom Crew 629.07 MB 9 0 8 months 2 months
[i] Delicate Sound of Thunder - [Concert] - (1991) - LDRip x264 - [=Faith=] 1.6 GB 7 1 1 year 2 weeks
[i] BBC Pink Floyd 2of3 Delicate Sound of Thunder PDTV x264 AAC 1.03 GB 6 1 2 years 5 months
[i] Pink Floyd - Delicate Sound of Thunder (1988) FLAC 634.3 MB 6 2 1 year 4 months
[i] Pink Floyd-Delicate Sound Of Thunder 2.28 GB 4 1 2 years 5 months
[i] Pink Floyd-Delicate Sound Of Thunder-2CD-FLAC-1988-TiLLMYDEATH-J 601.32 MB 1 0 3 years 8 months
[i] A Sound Of Thunder-The Lesser Key Of Solomon-CD-FLAC-2014-FORSAKEN
posted by SaRGN in Music - Misc
464.37 MB 1 0 1 year 4 months
[i] Blood.&.Thunder.The.Sound.of.Alberts.s01e01.360p.LDTV.WEBRIP 273.66 MB 1 0 1 year 2 months
[i] A Sound Of Thunder[2005]DvDrip AC3[Eng]-aXXo 700.03 MB 0 0 9 years 2 months

Top Movies ( auto generated report )

FILENAME SIZE SEEDS PEERS ADDED UPD
[i] Now.You.See.Me.2.2016.1080p.BluRay.x264.AC3-JYK 2.93 GB 5623 2377 2 days 1 hour
[i] Jason.Bourne.720p.HDTC.X264-NUKU
Movies - Action , Quality: Audio 8/10 - Video 8/10
2.49 GB 8305 4566 1 day 2 hours
[i] Blood.Father.2016.HDRip.XViD-ETRG 711.3 MB 7851 3968 3 days 1 day
[i] The Conjuring 2 (2016) 720p BluRay - 1.2GB - ShAaNiG 1.2 GB 7125 5490 2 days 1 day
[i] Jason Bourne (2016) 720p HDTC 850MB - MkvCage 904.3 MB 3847 1228 2 days 3 hours
[i] Blood.Father.2016.720p.WEBRip.x264.AAC-ETRG 662.3 MB 4159 2580 2 days 1 day
[i] War Dogs 2016 HD-TS x264-CPG 2.1 GB 3948 3105 2 days 1 day
[i] Our.Kind.of.Traitor.2016.HDRip.XviD.AC3-EVO 1.41 GB 4183 3294 1 day 2 hours
[i] The.Conjuring.2.2016.720p.BRRip.x264.AAC-ETRG 1004.3 MB 3885 3190 2 days 1 day
[i] The.Conjuring.2.2016.BRRip.XViD.AC3-ETRG 1.41 GB 2498 2579 1 day 1 day
advertising ( remove )