Absence of Malice(1981)MPEG-4[DaScubaDude]

DOWNLOAD TORRENT

Posted on May 19, 2017 in Movies » Misc

Size: 1.09 GB , Seeds: 1 , Peers: 0 ( Updated June 22, 2017 - Refresh )

* Download via Magnet Link * To download files you need a Bittorrent Client ,

Scrape History ( seeds + peers )

Internal Files

Absence of Malice
DVD_VIDEO_Title1.mp4   1.09 GB

Hash Code

c25acca578df06ec48ba5514ea53113e16e4b141

Description

SCREENSHOT

[youtube]ZSl7GYVn4Kc[/youtube]

Absence of Malice (1981)

PG | 1h 56min | Drama, Romance, Thriller | 18 December 1981 (USA)

When a prosecutor leaks a false story that a liquor warehouse owner is involved in the murder of an union head, the man's life begins to unravel.

Director: Sydney Pollack

Writer: Kurt Luedtke

Stars: Paul Newman, Sally Field, Bob Balaban


General

Complete name : Absence of Malice\DVD_VIDEO_Title1.mp4

Format : MPEG-4

Format profile : Base Media

Codec ID : isom (isom/iso2/avc1/mp41)

File size : 1.09 GiB

Duration : 1 h 56 min

Overall bit rate mode : Variable

Overall bit rate : 1 343 kb/s

Movie name : DVD_VIDEO

Genre : Drama

Writing application : Lavf54.6.100


Video

ID : 1

Format : AVC

Format/Info : Advanced Video Codec

Format profile : [email protected]/* */

Format settings, CABAC : No

Format settings, ReFrames : 6 frames

Codec ID : avc1

Codec ID/Info : Advanced Video Coding

Duration : 1 h 56 min

Bit rate : 1 208 kb/s

Width : 720 pixels

Height : 404 pixels

Display aspect ratio : 16:9

Frame rate mode : Constant

Frame rate : 29.970 (30000/1001) FPS

Color space : YUV

Chroma subsampling : 4:2:0

Bit depth : 8 bits

Scan type : Progressive

Bits/(Pixel*Frame) : 0.139

Stream size : 1 003 MiB (90%)


Audio

ID : 2

Format : AAC

Format/Info : Advanced Audio Codec

Format profile : LC

Codec ID : 40

Duration : 1 h 56 min

Bit rate mode : Variable

Bit rate : 128 kb/s

Maximum bit rate : 155 kb/s

Channel(s) : 2 channels

Channel positions : Front: L R

Sampling rate : 44.1 kHz

Frame rate : 43.066 FPS (1024 spf)

Compression mode : Lossy

Stream size : 106 MiB (10%)

Default : Yes

Alternate group : 1


Torrent location

https://www.1337x.to/torrent/2218415/Absence-of-Malice-1981-MPEG-4-DaScubaDude/

Trackers

Refresh Leechers : Updated June 22, 2017

1. http://explodie.org:6969/announce

2. http://tracker.tfile.me/announce

3. http://bigfoot1942.sektori.org:6969/announce

4. http://tracker2.wasabii.com.tw:6969/announce

5. http://tracker.mg64.net:6881/announce

6. http://bt.artvid.ru:6969/announce

7. http://tracker1.wasabii.com.tw:6969/announce

8. http://open.acgtracker.com:1096/announce

9. http://tracker.opentrackr.org/announce

10. http://mvgroup.org:2710/announce

11. udp://mgtracker.org:6969/announce

12. udp://asnet.pw:2710/announce

13. udp://tracker.mgtracker.org:2710/announce

14. udp://tracker4.piratux.com:6969/announce

15. udp://tracker.trackerfix.com:80/announce

16. udp://tracker.pomf.se:80/announce

17. udp://torrent.gresille.org:80/announce

18. udp://p4p.arenabg.com:1337

19. udp://ipv4.tracker.harry.lu:80/announce

20. udp://inferno.demonoid.ooo:3389/announce

21. udp://tracker.blackunicorn.xyz:6969/announce

22. udp://tracker.internetwarriors.net:1337/announce

23. udp://tracker.openbittorrent.com:80/announce

24. udp://eddie4.nl:6969/announce

25. udp://tracker.leechers-paradise.org:6969/announce

26. udp://tracker.opentrackr.org:1337/announce

27. udp://tracker.zer0day.to:1337/announce

28. udp://p4p.arenabg.ch:1337/announce

29. udp://tracker.coppersurfer.tk:6969/announce

30. udp://9.rarbg.to:2710/announce

31. udp://9.rarbg.com:2710/announce

32. udp://9.rarbg.me:2710/announce

33. udp://open.demonii.com:1337

34. udp://glotorrents.pw:6969/announce

35. http://tracker2.itzmx.com:6961/announce

36. http://tracker1.wasabii.com.tw:6969/announce

37. udp://9.rarbg.to:2710/announce

38. udp://tracker.coppersurfer.tk:6969/announce

39. udp://tracker.opentrackr.org:1337/announce

Comments

You must log in to add a comment.

Embed Code

Sharing Widget

Top Movies ( auto generated report )

FILENAME SIZE SEEDS PEERS ADDED UPD
[i] Kong Skull Island (2017) [1080p] [YTS AG] 1.81 GB 12600 6244 5 days 11 hours
[i] Kong- Skull Island (2017) [720p] [YTS AG] 883.55 MB 9677 9528 5 days 4 days
[i] King.Arthur.Legend.of.the.Sword.2017.1080p.KORSUB.HDRip.x264.AAC2.0-STUTTERSHIT[rarbg] 3.94 GB 7398 3684 5 days 13 hours
[i] King.Arthur.Legend.of.the.Sword.2017.KORSUB.HDRip.x264-STUTTERSHIT[rarbg] 1.03 GB 4512 2499 5 days 4 days
[i] Extortion (2017) [720p] [YTS AG] 807.26 MB 1988 1178 3 days 2 days
[i] King.Arthur.Legend.of.the.Sword.2017.720p.HC.HDRip.X264.AC3-EVO 2.81 GB 1618 1103 5 days 4 days
[i] Transformers The Last Knight 2017 HDTS x264 KOSHARA 1.37 GB 1578 381 5 days 2 days
[i] Extortion (2017) [1080p] [YTS AG] 1.67 GB 1554 884 3 days 2 days
[i] Moontrap Target Earth (2017) [720p] [YTS AG] 627.54 MB 1505 862 5 days 4 days
[i] Smurfs.The.Lost.Village.2017.1080p.WEB-DL.DD5.1.H264-FGT- rarbg.to .torrent 3.44 GB 1312 236 1 day 21 hours