All the Way 2016 720p WEBRip XviD MP3-FGT

DOWNLOAD TORRENT

Posted on May 24, 2016 in Movies » Misc , verified torrent

Size: 3.15 GB , Seeds: 4 , Peers: 0 ( Updated May 28, 2017 - Refresh )

* Download via Magnet Link * To download files you need a Bittorrent Client ,

Scrape History ( seeds + peers )

Internal Files

All.the.Way.2016.720p.WEBRip.XviD.MP3-FGT
All.the.Way.2016.720p.WEBRip.XviD.MP3-FGT.avi   3.15 GB
All.the.Way.2016.720p.WEBRip.XviD.MP3-FGT.nfo   3.03 KB
English.srt   183.76 KB
RARBG.com.txt   34 Byte

Hash Code

75077a2ba19a9d9ba1479b6b1419a48e0373330e

Description





https://rarbg.to/





SCREENSHOT

SCREENSHOT

SCREENSHOT

SCREENSHOT

SCREENSHOT

SCREENSHOT







[mediainfo]

Video

ID : 0

Format : MPEG-4 Visual

Format profile : [email protected]

Format settings, BVOP : No

Format settings, QPel : No

Format settings, GMC : No warppoints

Format settings, Matrix : Default (H.263)

Codec ID : XVID

Codec ID/Hint : XviD

Duration : 2h 11mn

Bit rate : 3 211 Kbps

Width : 1 280 pixels

Height : 720 pixels

Display aspect ratio : 16:9

Frame rate : 23.976 fps

Color space : YUV

Chroma subsampling : 4:2:0

Bit depth : 8 bits

Scan type : Progressive

Compression mode : Lossy

Bits/(Pixel*Frame) : 0.145

Stream size : 2.96 GiB (94%)

Writing library : Lavc57.16.101



Audio

ID : 1

Format : MPEG Audio

Format version : Version 1

Format profile : Layer 3

Mode : Joint stereo

Codec ID : 55

Codec ID/Hint : MP3

Duration : 2h 11mn

Bit rate mode : Constant

Bit rate : 192 Kbps

Channel(s) : 2 channels

Sampling rate : 44.1 KHz

Compression mode : Lossy

Stream size : 181 MiB (6%)

Alignment : Aligned on interleaves

Interleave, duration : 26 ms (0.63 video frame)

Interleave, preload duration : 522 ms

Writing library : LAME3.99.5







[/mediainfo]

Torrent location

http://kat.cr/all-the-way-2016-720p-webrip-xvid-mp3-fgt-t12642964.html

Trackers

Refresh Leechers : Updated May 28, 2017

1. udp://tracker.opentrackr.org:1337/announce

2. udp://tracker.coppersurfer.tk:6969/announce

3. udp://tracker.openbittorrent.com:80/announce

4. udp://glotorrents.pw:6969/announce

Comments

You must log in to add a comment.

Embed Code

Sharing Widget

Related torrents

FILENAME SIZE SEEDS PEERS ADDED UPD
[i] Colossal (2016) [720p] [YTS AG] 797.03 MB 2620 1311 3 days 2 days
[i] Colossal (2016) [1080p] [YTS AG] 1.66 GB 2497 1293 3 days 2 days
[i] Sleight (2016) [720p] [YTS AG] 658.87 MB 1861 1053 3 days 2 days
[i] Sleight (2016) [1080p] [YTS AG] 1.36 GB 1417 561 3 days 2 days
[i] Viral (2016) [720p] [YTS AG] 635.49 MB 1188 621 3 days 2 days
[i] Viral (2016) [1080p] [YTS AG] 1.31 GB 1009 490 3 days 2 days
[i] Sex Doll (2016) [720p] [YTS AG] 749.52 MB 986 253 2 weeks 6 days
[i] Charlie Charlie (2016) [720p] [YTS AG] 609.58 MB 880 514 1 day 1 day
[i] Charlie Charlie (2016) [1080p] [YTS AG] 1.28 GB 790 419 1 day 1 day
[i] Wazir (2016) [720p] [YTS AG] 768.62 MB 767 116 2 weeks 1 day

Top Movies ( auto generated report )

FILENAME SIZE SEEDS PEERS ADDED UPD
[i] Going in Style (2017) [720p] [YTS AG] 713.31 MB 7555 4189 2 days 1 day
[i] Going in Style (2017) [1080p] [YTS AG] 1.47 GB 6548 3336 2 days 1 day
[i] The Circle (2017) [1080p] [YTS AG] 1.68 GB 4522 2933 1 day 1 day
[i] The Circle (2017) [720p] [YTS AG] 812.53 MB 4292 3059 1 day 1 day
[i] Colossal (2016) [720p] [YTS AG] 797.03 MB 2620 1311 3 days 2 days
[i] S W A T - Under Siege (2017) [720p] [YTS AG] 665.25 MB 2586 1468 2 days 1 day
[i] Colossal (2016) [1080p] [YTS AG] 1.66 GB 2497 1293 3 days 2 days
[i] Sleight (2016) [720p] [YTS AG] 658.87 MB 1861 1053 3 days 2 days
[i] S W A T - Under Siege (2017) [1080p] [YTS AG] 1.36 GB 1817 972 2 days 1 day
[i] The Girl from the Song (2017) [1080p] [YTS AG] 1.56 GB 1472 891 1 day 1 day