Ao, le dernier Neandertal (2010)[BRRip 1080p x264 by alE13 AC3/DTS][Lektor i Napisy PL/Eng/Ger][Fre]

DOWNLOAD TORRENT

Posted by alE13 •1549 on August 25, 2016 in Movies » Adventure , verified torrent

Size: 7.82 GB , Seeds: 1 , Peers: 1 ( Updated October 28, 2016 - Refresh )

* Download via Magnet Link * To download files you need a Bittorrent Client ,

Scrape History ( seeds + peers )

Internal Files

Ao, le dernier Neandertal (2010)-alE13
cover.jpg   259.5 KB
Nostalgie.jpg   138.36 KB
Torrent downloaded from alE13 torrents at BTScene.org.txt   120 Byte
Torrent downloaded from demonoid.pw.txt   46 Byte
Torrent downloaded from - www.aletorrenty.pl   43 Byte
Ao, le dernier Neandertal (2010)-alE13.rar   12.43 KB
Ao, le dernier Neandertal (2010)-alE13.mkv   7.75 GB
sample.mkv   70.02 MB
poster.jpg   118.04 KB
txt.jpg   86.08 KB

Hash Code

28c2f6a60a8071fa8e0ecbb891c6759d7703216b

Description

SCREENSHOT

http://www.filmweb.pl/film/AO+Ostatni+Neandertalczyk-2010-557996
http://www.imdb.com/title/tt1526578/

reżyseria: Jacques Malaterre
scenariusz: Jacques Malaterre,Philippe Isard,Michel Fessler
gatunek: Historyczny,Przygodowy
produkcja: Francja
premiera: 01-04-2010
muzyka: Armand Amar
zdjęcia: Sabine Lancelin
czas: 1h 23min

opis:

When his clan, including his wife and baby girl Néa, are massacred, Ao, a desperate Neandertal man,
decides to leave the North country where he has been living for the South where he was born. His aim
is to join his twin brother, from whom he was separated when he was nine. On his long and adventurous
way home, he meets Aki, a Homo Sapiens woman...

Wzruszająca, pełna przygód opowieść o losach ostatniego Neandertalczyka. Ao, główny bohater, po masakrze
rodu, niesiony wspomnieniem dzieciństwa i chęcią odnalezienia brata, wyrusza z Syberii na południe Europy.
Siła i instynkt łowcy pozwalają mu przetrwać pełną niebezpieczeństw podróż.. W niewoli, w którą spycha go
wrogie plemię homo-sapiens, poznaje piękną Aki. Pojawia się dziecko, którego obecność odmienia los obojga.
Interesująca narracja, piękna fabuła, wspaniałe zdjęcia. Fascynująca podróż do źródeł człowieczeństwa.

SCREENSHOT
SCREENSHOT
SCREENSHOT
SCREENSHOT

obsada:

Simon Paul Sutton, Aruna Shields, Helmi Dridi

dane techniczne:

Ao, le dernier Neandertal (2010)-alE13.mkv
Format : Matroska
Format version : Version 4 / Version 2
File size : 7.75 GiB
Duration : 1 h 23 min
Overall bit rate : 13.2 Mb/s
Movie name : Ao, le dernier Neandertal (2010)-alE13
Encoded date : UTC 2016-08-25 03:17:22
Writing application : mkvmerge v8.1.0 ('Psychedelic Postcard') 64bit
Writing library : libebml v1.3.1 + libmatroska v1.4.2
Cover : Yes
Attachments : cover.jpg / cover.jpg

Video
ID : 1
Format : AVC
Format/Info : Advanced Video Codec
Format profile : [email protected]
Format settings, CABAC : Yes
Format settings, ReFrames : 2 frames
Codec ID : V_MPEG4/ISO/AVC
Duration : 1 h 23 min
Bit rate : 9 954 kb/s
Width : 1 920 pixels
Height : 800 pixels
Display aspect ratio : 2.40:1
Frame rate mode : Constant
Frame rate : 24.000 FPS
Color space : YUV
Chroma subsampling : 4:2:0
Bit depth : 8 bits
Scan type : Progressive
Bits/(Pixel*Frame) : 0.270
Stream size : 5.82 GiB (75%)
Title : Ao, le dernier Neandertal (2010)-alE13
Writing library : x264 core 142
Default : Yes
Forced : No
Color range : Limited
Color primaries : BT.709
Transfer characteristics : BT.709
Matrix coefficients : BT.709

Audio #1
ID : 2
Format : AC-3
Format/Info : Audio Coding 3
Mode extension : CM (complete main)
Format settings, Endianness : Big
Codec ID : A_AC3
Duration : 1 h 23 min
Bit rate mode : Constant
Bit rate : 448 kb/s
Channel(s) : 6 channels
Channel positions : Front: L C R, Side: L R, LFE
Sampling rate : 48.0 kHz
Frame rate : 31.250 FPS (1536 spf)
Compression mode : Lossy
Stream size : 268 MiB (3%)
Title : Ao, le dernier Neandertal (2010)-alE13
Language : French
Default : No
Forced : No

Audio #2
ID : 3
Format : DTS
Format/Info : Digital Theater Systems
Format profile : MA / ES Matrix / Core
Mode : 16
Format settings, Endianness : Big
Codec ID : A_DTS
Duration : 1 h 23 min
Bit rate mode : Variable / Constant / Constant
Bit rate : 2 651 kb/s / 768 kb/s / 768 kb/s
Channel(s) : 8 channels / 7 channels / 6 channels
Channel positions : Front: L C R, Side: L R, Back: L R, LFE / Front: L C R, Side: L R, Back: C, LFE / Front: L C R, Side: L R, LFE
Sampling rate : 48.0 kHz
Frame rate : 93.750 FPS (512 spf)
Bit depth : 16 bits
Compression mode : Lossless / Lossy / Lossy
Stream size : 1.55 GiB (20%)
Title : Ao, le dernier Neandertal (2010)-alE13
Language : French
Default : No
Forced : No

Audio #3
ID : 7
Format : AC-3
Format/Info : Audio Coding 3
Mode extension : CM (complete main)
Format settings, Endianness : Big
Codec ID : A_AC3
Duration : 1 h 23 min
Bit rate mode : Constant
Bit rate : 192 kb/s
Channel(s) : 2 channels
Channel positions : Front: L R
Sampling rate : 48.0 kHz
Frame rate : 31.250 FPS (1536 spf)
Compression mode : Lossy
Delay relative to video : 1 s 100 ms
Stream size : 115 MiB (1%)
Title : Ao, le dernier Neandertal (2010)-alE13
Language : Polish
Default : Yes
Forced : No

Text #1
ID : 4
Format : PGS
Muxing mode : zlib
Codec ID : S_HDMV/PGS
Codec ID/Info : Picture based subtitle format used on BDs/HD-DVDs
Duration : 1 h 17 min
Bit rate : 1 925 b/s
Count of elements : 224
Stream size : 1.07 MiB (0%)
Title : Ao, le dernier Neandertal (2010)-alE13
Language : German
Default : No
Forced : No

Text #2
ID : 5
Format : UTF-8
Codec ID : S_TEXT/UTF8
Codec ID/Info : UTF-8 Plain Text
Duration : 1 h 19 min
Bit rate : 11 b/s
Count of elements : 209
Stream size : 6.66 KiB (0%)
Title : Ao, le dernier Neandertal (2010)-alE13
Language : Polish
Default : Yes
Forced : No

Text #3
ID : 6
Format : UTF-8
Codec ID : S_TEXT/UTF8
Codec ID/Info : UTF-8 Plain Text
Duration : 1 h 19 min
Bit rate : 10 b/s
Count of elements : 216
Stream size : 6.27 KiB (0%)
Title : Ao, le dernier Neandertal (2010)-alE13
Language : English
Default : No
Forced : No

Trackers

Refresh Leechers : Updated October 28, 2016

1. http://tracker.aletorrenty.pl:2710/announce

2. http://tracker.filetracker.pl:8089/announce

3. http://tracker.torrenty.org:6969/announce

4. http://tracker.ex.ua/announce

5. udp://inferno.demonoid.ooo:3392/announce

6. http://torrent.gresille.org/announce.php

7. udp://tracker.aletorrenty.pl:2710/announce

8. udp://tracker.openbittorrent.com:80/announce

9. udp://tracker.leechers-paradise.org:6969/announce

10. udp://torrent.gresille.org:80/announce

11. udp://tracker.opentrackr.org:1337/announce

12. udp://9.rarbg.me:2710/announce

13. udp://tracker.coppersurfer.tk:6969/announce

14. udp://www.eddie4.nl:6969/announce

15. udp://tracker.coppersurfer.tk:6969

16. udp://tracker.leechers-paradise.org:6969

17. udp://exodus.desync.com:6969

18. udp://tracker.prq.to/announce

19. udp://tracker.openbittorrent.com:80/announce

20. udp://11.rarbg.com/announce

21. udp://tracker.publicbt.com:80/announce

22. udp://tracker.token.ro:80/announce

23. udp://tracker.istole.it:80/announce

24. udp://open.demonii.com:1337/announce

25. udp://open.demonii.com:1337

26. udp://open.demonii.com:1337/announce

Comments

You must log in to add a comment.

Embed Code

Sharing Widget

Top Movies ( auto generated report )

FILENAME SIZE SEEDS PEERS ADDED UPD
[i] Kong Skull Island (2017) [1080p] [YTS AG] 1.81 GB 13845 10095 1 day 7 hours
[i] Kong- Skull Island (2017) [720p] [YTS AG] 883.55 MB 9677 9528 1 day 7 hours
[i] The Zookeeper's Wife (2017) [720p] [YTS AG] 929.77 MB 2635 2119 4 days 3 days
[i] King.Arthur.Legend.of.the.Sword.2017.1080p.KORSUB.HDRip.x264.AAC2.0-STUTTERSHIT[rarbg] 3.94 GB 8664 6520 1 day 9 hours
[i] Apprentice (2016) [720p] [YTS AG] 715.21 MB 1351 820 2 days 1 day
[i] Cars 3 2017 TS XViD AC3-N O K 1.4 GB 1184 1399 4 days 3 days
[i] King.Arthur.Legend.of.the.Sword.2017.KORSUB.HDRip.x264-STUTTERSHIT[rarbg] 1.03 GB 4512 2499 1 day 9 hours
[i] Apprentice (2016) [1080p] [YTS AG] 1.47 GB 1014 577 2 days 1 day
[i] Kong.Skull.Island.2017.1080p.BluRay.x264-SPARKS[EtHD].torrent 8.75 GB 942 1242 2 days 1 day
[i] Red Dog True Blue (2016) [720p] [YTS AG] 649 MB 934 389 5 days 4 days