Archer S08E07 Gramarcy Halberd 720p WEB x264-[MULVAcoded]

DOWNLOAD TORRENT

Posted on May 19, 2017 in Series » Misc , verified torrent

Size: 115.83 MB , Seeds: 14 , Peers: 6 ( Updated June 22, 2017 - Refresh )

* Download via Magnet Link * To download files you need a Bittorrent Client ,

Scrape History ( seeds + peers )

Internal Files

Archer.S08E07.Gramarcy.Halberd.720p.WEB.x264-[MULVAcoded].mp4
Archer.S08E07.Gramarcy.Halberd.720p.WEB.x264-[MULVAcoded].mp4   115.78 MB

Hash Code

7a3f66abc095f29835ebd073a48e3d66e83f73c0

Description

SCREENSHOT

Archer S08E07 Gramarcy Halberd 720p WEB x264-[MULVAcoded]

https://www.imdb.com/title/tt1486217

Airdate : 2017-05-17


SEED/LEECH STATS

SCREENSHOT


Archer and Trexler try to escape a rampaging Dutch by telling the world's worst knock-knock joke.


English subtitles included


Screenshots

Click to enlarge

SCREENSHOT SCREENSHOT

SCREENSHOT SCREENSHOT


***NOTE***

MULVAcoded encodes are now compatible with xbox 360/PS3/PS4 and most embedded TV players!

*** *** ***

SCREENSHOT


Source : Archer.S08E07.1080p.WEB-DL.DD5.1.H264-RARBG


Format : MPEG-4

Format profile : Base Media

Codec ID : isom (isom/iso2/avc1/mp41)

File size : 116 MiB

Duration : 18 min 46 s

Overall bit rate mode : Variable

Overall bit rate : 863 kb/s

Writing application : Lavf56.32.100


Video

ID : 1

Format : AVC

Format/Info : Advanced Video Codec

Format profile : [email protected]/* */

Format settings, CABAC : Yes

Format settings, ReFrames : 8 frames

Codec ID : avc1

Codec ID/Info : Advanced Video Coding

Duration : 18 min 46 s

Bit rate : 759 kb/s

Width : 1 280 pixels

Height : 720 pixels

Display aspect ratio : 16:9

Frame rate mode : Variable

Frame rate : 23.976 (24000/1001) FPS

Minimum frame rate : 23.564 FPS

Maximum frame rate : 24.390 FPS

Color space : YUV

Chroma subsampling : 4:2:0

Bit depth : 8 bits

Scan type : Progressive

Bits/(Pixel*Frame) : 0.034

Stream size : 102 MiB (88%)


Audio

ID : 2

Format : AAC

Format/Info : Advanced Audio Codec

Format profile : LC

Codec ID : 40

Duration : 18 min 45 s

Bit rate mode : Constant

Bit rate : 96.0 kb/s

Channel(s) : 2 channels

Channel positions : Front: L R

Sampling rate : 48.0 kHz

Frame rate : 46.875 FPS (1024 spf)

Compression mode : Lossy

Stream size : 12.9 MiB (11%)

Language : English

Default : Yes

Alternate group : 1


Text

ID : 3

Format : Timed Text

Muxing mode : sbtl

Codec ID : tx3g

Duration : 18 min 5 s

Bit rate mode : Variable

Bit rate : 88 b/s

Stream size : 11.7 KiB (0%)

Language : English

Default : Yes

Forced : No

Alternate group : 3

Torrent location

https://www.1337x.to/torrent/2218648/Archer-S08E07-Gramarcy-Halberd-720p-WEB-x264-MULVAcoded/

Trackers

Refresh Leechers : Updated June 22, 2017

1. http://explodie.org:6969/announce

2. http://tracker.tfile.me/announce

3. http://bigfoot1942.sektori.org:6969/announce

4. http://tracker2.wasabii.com.tw:6969/announce

5. http://tracker.mg64.net:6881/announce

6. http://bt.artvid.ru:6969/announce

7. http://tracker1.wasabii.com.tw:6969/announce

8. http://open.acgtracker.com:1096/announce

9. http://tracker.opentrackr.org/announce

10. http://mvgroup.org:2710/announce

11. udp://mgtracker.org:6969/announce

12. udp://asnet.pw:2710/announce

13. udp://tracker.mgtracker.org:2710/announce

14. udp://tracker4.piratux.com:6969/announce

15. udp://tracker.trackerfix.com:80/announce

16. udp://tracker.pomf.se:80/announce

17. udp://torrent.gresille.org:80/announce

18. udp://p4p.arenabg.com:1337

19. udp://ipv4.tracker.harry.lu:80/announce

20. udp://inferno.demonoid.ooo:3389/announce

21. udp://tracker.blackunicorn.xyz:6969/announce

22. udp://tracker.internetwarriors.net:1337/announce

23. udp://tracker.openbittorrent.com:80/announce

24. udp://eddie4.nl:6969/announce

25. udp://tracker.leechers-paradise.org:6969/announce

26. udp://tracker.opentrackr.org:1337/announce

27. udp://tracker.zer0day.to:1337/announce

28. udp://p4p.arenabg.ch:1337/announce

29. udp://tracker.coppersurfer.tk:6969/announce

30. udp://9.rarbg.to:2710/announce

31. udp://9.rarbg.com:2710/announce

32. udp://9.rarbg.me:2710/announce

33. udp://open.demonii.com:1337

34. udp://glotorrents.pw:6969/announce

35. udp://ipv4.tracker.harry.lu:80/announce

36. udp://p4p.arenabg.ch:1337/announce

37. udp://tracker.coppersurfer.tk:80/announce

38. udp://tracker.pirateparty.gr:6969/announce

39. udp://tracker.tiny-vps.com:6969/announce

40. udp://9.rarbg.to:2710/announce

41. udp://bt.firebit.co.uk:6969/announce

42. udp://shadowshq.yi.org:6969/announce

43. udp://tracker.grepler.com:6969/announce

44. udp://tracker.leechers-paradise.org:6969/announce

45. udp://9.rarbg.me:2710/announce

46. udp://public.popcorn-tracker.org:6969/announce

47. udp://tracker.opentrackr.org:1337/announce

48. udp://tracker.zer0day.to:1337/announce

49. udp://tracker.coppersurfer.tk:6969/announce

Comments

You must log in to add a comment.

Embed Code

Sharing Widget

Top Series ( auto generated report )

FILENAME SIZE SEEDS PEERS ADDED UPD
[i] Power.2014.S04E04.HDTV.x264-Dark 368.07 MB 2024 564 5 days 4 days
[i] The.Strain.S04E01.XviD-AFG 396.48 MB 1968 339 4 days 3 days
[i] WWE Smackdown Live 2017 07 18 HDTV x264-Ebi [TJET] 866.32 MB 1420 290 2 days 1 day
[i] Twin.Peaks.S03E10.The.Return.Part.10.720p.AMZN.WEB-DL.DDP5.1.H.264-NTb[ettv].torrent 1.31 GB 1348 162 4 days 3 days
[i] Game.Of.Thrones.S07E01.iNTERNAL.HDTV.x264-TURBO[rarbg] 325.07 MB 1278 593 4 days 3 days
[i] The.Strain.S04E01.WEBRip.x264-RARBG 414.25 MB 1150 312 4 days 3 days
[i] Shooter.S02E01.HDTV.x264-SVA[ettv] 294.5 MB 1040 135 2 days 1 day
[i] Salvation.S01E02.HDTV.x264-LOL[ettv] 260.5 MB 839 105 1 day 19 hours
[i] Animal.Kingdom.US.S02E07.HDTV.x264-SVA[ettv] 330.5 MB 764 129 2 days 1 day
[i] MasterChef.Australia.S09E60.WEB-DL.x264-MFO 785.15 MB 630 105 1 day 4 hours