Bit Torrent Scene a public file sharing platform Home Categories Blog About

advertising ( remove )

Boulevard (2014).H264.Italian.English.Ac3.5.1.sub.Ita.iCV-MIRCrew

DOWNLOAD TORRENT

Posted by robbyrs •2582 on August 28, 2016 in Movies » Drama , verified torrent

Size: 1.24 GB , Seeds: 17 , Peers: 71 ( Updated August 28, 2016 )

* Download via Magnet Link * To download files you need a Bittorrent Client ,

advertising ( remove )

External Info

Trailer | Wikipedia | Other Info

Internal Files

Boulevard (2014).H264.ita.eng.sub.ita.iCV-MIRCrew.mkv
Boulevard (2014).H264.ita.eng.sub.ita.iCV-MIRCrew.mkv   1.24 GB

Hash Code

13cdf3f09a6f7f00d04339410c1c5cc996ae68fa

Description

Boulevard (2014).H264.Italian.English.Ac3.5.1.sub.Ita.iCV-MIRCrew



SCREENSHOT
NO FOUND ONLY ORIGINAL RELEASE

My release is always in double track audio italian and Original audio
for select it use VLC or dvd player home
not use wmp

Boulevard (2014)

SCREENSHOT

SCREENSHOT

SCREENSHOT

Titolo originale Boulevard
Lingua originale inglese
Paese di produzione Stati Uniti d'America
Anno 2014
Durata 89 min
Colore colore
Audio sonoro
Rapporto 2,35 : 1
Genere drammatico
Regia Dito Montiel
Sceneggiatura Douglas Soesbe
Produttore Monica Aguirre Diez Barroso, Mia Chang, Jeffrey Gelber, Ryan Belenzon
Produttore esecutivo Mark Moran, Todd Williams
Casa di produzione Camellia Entertainment
Evil Media Empire
Fotografia Chung-hoon Chung
Montaggio Jake Pushinsky
Musiche Jimmy Haun
Scenografia Angela Messina


SCREENSHOT


Boulevard è un film del 2014 diretto da Dito Montiel con protagonista Robin Williams, qui alla sua ultima interpretazione come attore. Presentato in anteprima al Tribeca Film Festival il 20 aprile 2014, in Italia il film ha avuto il suo primo passaggio televisivo in prima serata su Sky Cinema 1 l'11 agosto 2016 per ricordarlo a due anni dalla scomparsa.
Trama


SCREENSHOT

Nolan Mack è un 60enne dalla vita ordinaria, con un tranquillo lavoro in banca e sposato da molti anni. Consapevole da sempre di essere gay, Nolan conduce una tranquilla vita familiare con la moglie Joy, per cui prova un profondo affetto, nonostante dormano in stanze separate. Una sera, di ritorno da una visita all'anziano padre malato, Nolan si inoltra in una strada frequentata da prostituti, dove conosce il giovane e affascinante Leo.......................

SCREENSHOT

Nolan Mack is sixty. Married to Joy, a charming and intelligent woman, friend to Winston, a bright literature professor, and well-regarded in the bank where he works, Noland leads a quiet uneventful life. But is he happy, as his superior at the bank once asks him...? One night, as he drives back home, he nearly runs into a gay hooker. Sorry for what might have happened,

SCREENSHOT

SCREENSHOT

SCREENSHOT SCREENSHOT SCREENSHOT

SCREENSHOT


[spoiler]
General
Unique ID : 84407320432413772342594202206551814069 (0x3F80423341EBB687757D79916D5E2FB5)
Complete name : Boulevard (2014).H264.ita.eng.sub.ita.iCV-MIRCrew.mkv
Format : Matroska
Format version : Version 2
File size : 1.24 GiB
Duration : 1h 28mn
Overall bit rate : 2 010 Kbps
Movie name : www.icv-crew.org
Encoded date : UTC 2016-08-19 09:48:19
Writing application : Lavf54.63.100
Writing library : Lavf54.63.100

Video
ID : 1
Format : AVC
Format/Info : Advanced Video Codec
Format profile : [email protected]
Format settings, CABAC : Yes
Format settings, ReFrames : 2 frames
Codec ID : V_MPEG4/ISO/AVC
Duration : 1h 28mn
Bit rate : 1 250 Kbps
Width : 720 pixels
Height : 300 pixels
Display aspect ratio : 2.40:1
Frame rate mode : Variable
Frame rate : 23.976 fps
Color space : YUV
Chroma subsampling : 4:2:0
Bit depth : 8 bits
Scan type : Progressive
Bits/(Pixel*Frame) : 0.241
Stream size : 760 MiB (60%)
Writing library : x264 core 130 r2273
Encoding settings : cabac=1 / ref=2 / deblock=1:0:0 / analyse=0x1:0x131 / me=hex / subme=7 / psy=1 / psy_rd=1.00:0.00 / mixed_ref=0 / me_range=16 / chroma_me=1 / trellis=1 / 8x8dct=0 / cqm=0 / deadzone=21,11 / fast_pskip=1 / chroma_qp_offset=-2 / threads=12 / lookahead_threads=2 / sliced_threads=0 / nr=0 / decimate=1 / interlaced=0 / bluray_compat=0 / constrained_intra=0 / bframes=3 / b_pyramid=0 / b_adapt=1 / b_bias=0 / direct=3 / weightb=1 / open_gop=0 / weightp=2 / keyint=230 / keyint_min=23 / scenecut=40 / intra_refresh=0 / rc_lookahead=40 / rc=abr / mbtree=1 / bitrate=1250 / ratetol=1.0 / qcomp=0.60 / qpmin=10 / qpmax=69 / qpstep=4 / vbv_maxrate=24000 / vbv_bufsize=24000 / nal_hrd=none / ip_ratio=1.40 / aq=1:1.00
Default : Yes
Forced : No
DURATION : 01:28:22.756000000
NUMBER_OF_FRAMES : 127139
NUMBER_OF_BYTES : 7318700275
_STATISTICS_WRITING_APP : mkvmerge v7.2.0 ('On Every Street') 64bit built on Sep 13 2014 15:52:10
_STATISTICS_WRITING_DATE_UTC : 2016-08-13 12:20:10
_STATISTICS_TAGS : BPS DURATION NUMBER_OF_FRAMES NUMBER_OF_BYTES

Audio #1
ID : 2
Format : AC-3
Format/Info : Audio Coding 3
Mode extension : CM (complete main)
Codec ID : A_AC3
Duration : 1h 28mn
Bit rate mode : Constant
Bit rate : 384 Kbps
Channel(s) : 6 channels
Channel positions : Front: L C R, Side: L R, LFE
Sampling rate : 48.0 KHz
Bit depth : 16 bits
Compression mode : Lossy
Delay relative to video : 8s 300ms
Stream size : 243 MiB (19%)
Title : AC3 iTA
Language : Italian
Default : Yes
Forced : Yes
DURATION : 01:28:08.256000000
NUMBER_OF_FRAMES : 165258
NUMBER_OF_BYTES : 253836288
_STATISTICS_WRITING_APP : mkvmerge v7.2.0 ('On Every Street') 64bit built on Sep 13 2014 15:52:10
_STATISTICS_WRITING_DATE_UTC : 2016-08-13 12:20:10
_STATISTICS_TAGS : BPS DURATION NUMBER_OF_FRAMES NUMBER_OF_BYTES

Audio #2
ID : 3
Format : AC-3
Format/Info : Audio Coding 3
Mode extension : CM (complete main)
Codec ID : A_AC3
Duration : 1h 28mn
Bit rate mode : Constant
Bit rate : 384 Kbps
Channel(s) : 6 channels
Channel positions : Front: L C R, Side: L R, LFE
Sampling rate : 48.0 KHz
Bit depth : 16 bits
Compression mode : Lossy
Delay relative to video : 8s 295ms
Stream size : 243 MiB (19%)
Title : AC3 ENG
Language : English
Default : No
Forced : No
DURATION : 01:28:08.224000000
NUMBER_OF_FRAMES : 165257
NUMBER_OF_BYTES : 423057920
_STATISTICS_WRITING_APP : mkvmerge v7.2.0 ('On Every Street') 64bit built on Sep 13 2014 15:52:10
_STATISTICS_WRITING_DATE_UTC : 2016-08-13 12:20:10
_STATISTICS_TAGS : BPS DURATION NUMBER_OF_FRAMES NUMBER_OF_BYTES

Text #1
ID : 4
Format : UTF-8
Codec ID : S_TEXT/UTF8
Codec ID/Info : UTF-8 Plain Text
Title : FORCED iTA
Language : Italian
Default : Yes
Forced : Yes
DURATION : 01:10:09.919000000
NUMBER_OF_FRAMES : 8
NUMBER_OF_BYTES : 314
_STATISTICS_WRITING_APP : mkvmerge v7.2.0 ('On Every Street') 64bit built on Sep 13 2014 15:52:10
_STATISTICS_WRITING_DATE_UTC : 2016-08-13 12:20:10
_STATISTICS_TAGS : BPS DURATION NUMBER_OF_FRAMES NUMBER_OF_BYTES

Text #2
ID : 5
Format : ASS
Codec ID : S_TEXT/ASS
Codec ID/Info : Advanced Sub Station Alpha
Compression mode : Lossless
Title : REGULAR iTA
Language : Italian
Default : No
Forced : No
DURATION : 01:23:23.399000000
NUMBER_OF_FRAMES : 1183
NUMBER_OF_BYTES : 35525
_STATISTICS_WRITING_APP : mkvmerge v7.2.0 ('On Every Street') 64bit built on Sep 13 2014 15:52:10
_STATISTICS_WRITING_DATE_UTC : 2016-08-13 12:20:10
_STATISTICS_TAGS : BPS DURATION NUMBER_OF_FRAMES NUMBER_OF_BYTES

Menu
00:00:00.000 : :00:00:00.000
00:02:38.158 : :00:02:38.158
00:10:35.802 : :00:10:35.802
00:16:57.141 : :00:16:57.141
00:25:34.241 : :00:25:34.241
00:30:12.561 : :00:30:12.561
00:37:40.383 : :00:37:40.383
00:51:29.461 : :00:51:29.461
01:00:15.612 : :01:00:15.612
01:10:10.206 : :01:10:10.206
01:20:12.808 : :01:20:12.808
01:24:18.053 : :01:24:18.053


[/spoiler]

Scrape History ( seeds + peers )

Trackers

Refresh Leechers : Updated August 28, 2016

1. udp://tracker.leechers-paradise.org:6969/announce

2. udp://torrent.gresille.org:80/announce

3. udp://tracker.opentrackr.org:1337/announce

4. udp://tracker.coppersurfer.tk:6969/announce

5. udp://glotorrents.pw:6969/announce

6. udp://tracker.pomf.se:80/announce

7. udp://tracker.openbittorrent.com:80/announce

8. udp://tracker.coppersurfer.tk:6969/announce

9. udp://poloniumsurfer.tk:6969/announce

10. udp://9.rarbg.com:2710/announce

11. udp://9.rarbg.to:2710/announce

12. udp://9.rarbg.me:2710/announce

13. https://www.wareztorrent.com/announce

14. https://www.wareztorrent.com/announce

15. https://tracker.tfile.me/announce

16. https://tracker.dutchtracking.nl/announce

17. https://tracker.dutchtracking.nl:80/announce

18. https://tracker.tfile.me:80/announce

Comments

You must log in to add a comment.

Embed Code

Sharing Widget

Top Movies ( auto generated report )

FILENAME SIZE SEEDS PEERS ADDED UPD
[i] Now.You.See.Me.2.2016.1080p.BluRay.x264.AC3-JYK 2.93 GB 8132 5852 1 day 23 hours
[i] Blood.Father.2016.HDRip.XViD-ETRG 711.3 MB 7851 3968 2 days 15 hours
[i] The Conjuring 2 (2016) 720p BluRay - 1.2GB - ShAaNiG 1.2 GB 7125 5490 1 day 15 hours
[i] Jason.Bourne.720p.HDTC.X264-NUKU
Movies - Action , Quality: Audio 8/10 - Video 8/10
2.49 GB 8020 6984 4 hours 2 hours
[i] Jason Bourne (2016) 720p HDTC 850MB - MkvCage 904.3 MB 4312 2138 1 day 11 hours
[i] Blood.Father.2016.720p.WEBRip.x264.AAC-ETRG 662.3 MB 4159 2580 1 day 5 hours
[i] War Dogs 2016 HD-TS x264-CPG 2.1 GB 3948 3105 1 day 4 hours
[i] The.Conjuring.2.2016.720p.BRRip.x264.AAC-ETRG 1004.3 MB 3885 3190 1 day 5 hours
[i] Our.Kind.of.Traitor.2016.HDRip.XviD.AC3-EVO 1.41 GB 3922 4367 4 hours 2 hours
[i] Genius.2016.HDRip.XviD.AC3-EVO 1.39 GB 2250 1125 4 days 3 days
advertising ( remove )