Central Intelligence 2016 HC WEBRip x264-STUTTERSHIT

DOWNLOAD TORRENT

Posted on July 14, 2016 in Movies » Comedy , verified torrent

Size: 988.15 MB , Seeds: 40 , Peers: 3 ( Updated September 16, 2016 - Refresh )

* Download via Magnet Link * To download files you need a Bittorrent Client ,

Scrape History ( seeds + peers )

Internal Files

Central.Intelligence.2016.HC.WEBRip.x264-STUTTERSHIT
Central.Intelligence.2016.HC.WEBRip.x264-STUTTERSHIT.mp4   987.5 MB
Central.Intelligence.2016.HC.WEBRip.x264-STUTTERSHIT.nfo   3.93 KB
RARBG.com.txt   34 Byte

Hash Code

1f3bb5c294136ad980c58aa99d7678b1af98b387

Description





https://rarbg.to/





SCREENSHOT

SCREENSHOT

SCREENSHOT

SCREENSHOT

SCREENSHOT

SCREENSHOT







[mediainfo]

Video

ID : 1

Format : AVC

Format/Info : Advanced Video Codec

Format profile : [email protected]

Format settings, CABAC : Yes

Format settings, ReFrames : 5 frames

Codec ID : avc1

Codec ID/Info : Advanced Video Coding

Duration : 1h 51mn

Bit rate : 1 100 Kbps

Width : 720 pixels

Height : 304 pixels

Display aspect ratio : 2.40:1

Original display aspect ratio : 2.40:1

Frame rate mode : Constant

Frame rate : 23.976 (23976/1000) fps

Color space : YUV

Chroma subsampling : 4:2:0

Bit depth : 8 bits

Scan type : Progressive

Bits/(Pixel*Frame) : 0.210

Stream size : 881 MiB (89%)

Title : Central.Intelligence.2016.HC.WEBRip.x264-STUTTERSHIT

Writing library : x264 core 148 r2694 3b70645

Encoding settings : cabac=1 / ref=5 / deblock=1:-2:-2 / analyse=0x3:0x113 / me=umh / subme=8 / psy=1 / psy_rd=0.90:0.00 / mixed_ref=1 / me_range=16 / chroma_me=1 / trellis=1 / 8x8dct=1 / cqm=0 / deadzone=21,11 / fast_pskip=1 / chroma_qp_offset=-2 / threads=12 / lookahead_threads=2 / sliced_threads=0 / nr=0 / decimate=1 / interlaced=0 / bluray_compat=0 / constrained_intra=0 / bframes=3 / b_pyramid=2 / b_adapt=2 / b_bias=0 / direct=3 / weightb=1 / open_gop=0 / weightp=2 / keyint=250 / keyint_min=25 / scenecut=40 / intra_refresh=0 / rc_lookahead=50 / rc=abr / mbtree=1 / bitrate=1100 / ratetol=1.0 / qcomp=0.60 / qpmin=0 / qpmax=69 / qpstep=4 / vbv_maxrate=31250 / vbv_bufsize=31250 / nal_hrd=none / filler=0 / ip_ratio=1.40 / aq=1:1.00



Audio

ID : 2

Format : AAC

Format/Info : Advanced Audio Codec

Format profile : LC

Codec ID : 40

Duration : 1h 51mn

Bit rate mode : Constant

Bit rate : 128 Kbps

Channel(s) : 2 channels

Channel positions : Front: L R

Sampling rate : 48.0 KHz

Frame rate : 46.875 fps (1024 spf)

Compression mode : Lossy

Stream size : 102 MiB (10%)

Title : Central.Intelligence.2016.HC.WEBRip.x264-STUTTERSHIT

Language : English

Default : Yes

Alternate group : 1







[/mediainfo]

Torrent location

http://kat.cr/central-intelligence-2016-hc-webrip-x264-stuttershit-t12942362.html

Trackers

Refresh Leechers : Updated September 16, 2016

1. udp://p4p.arenabg.com:1337/announce

2. udp://tracker.opentrackr.org:1337/announce

3. udp://tracker.coppersurfer.tk:6969/announce

4. udp://tracker.openbittorrent.com:80/announce

5. udp://9.rarbg.me:2710/announce

Comments

You must log in to add a comment.

Embed Code

Sharing Widget

Related torrents

FILENAME SIZE SEEDS PEERS ADDED UPD
[i] Central Intelligence (2016) HC - 720p HDRiP v2 - 999MB - ShAaNiG 1000.3 MB 1206 440 11 months 9 months
[i]
[i]
Central Intelligence 2016 HD-TS X264 AC3-CPG
Movies - Comedy , Quality: Audio 9/10 - Video 9/10
1.64 GB 1165 270 1 year 8 months
[i] Central.Intelligence.2016.UNRATED.1080p.BluRay.AC3.x264-ETRG 3.35 GB 387 122 8 months 7 months
[i]
[i]
Central Intelligence 2016 1080p HC WEBRip x264 AAC2 0-STUTTERSHIT
Movies - Comedy , Quality: Audio 8/10 - Video 8/10
3.74 GB 257 19 11 months 9 months
[i] Central Intelligence (2016) 1080p HC WEBRip 1.8GB - MkvCage 1.83 GB 173 33 11 months 9 months
[i] Central Intelligence (2016) HC - 1080p HDRiP - 2GB - ShAaNiG 2 GB 172 17 11 months 8 months
[i]
[i]
Central Intelligence (2016) HDTS 750MB - MkvCage
Movies - Comedy , Quality: Audio 7/10 - Video 7/10
753.3 MB 147 6 1 year 8 months
[i] Central Intelligence 2016 720p - HDTS - Zi$t-CTRC 929.3 MB 137 3 12 months 10 months
[i] Central Intelligence 2016 New HD-TS 600 MB - iExTV 601.3 MB 111 3 1 year 10 months
[i] Central Intelligence 2016 720p HC-WEBRip - x265 HEVC - Zi$t-CTRC 716.3 MB 109 24 11 months 8 months

Top Movies ( auto generated report )

FILENAME SIZE SEEDS PEERS ADDED UPD
[i] Power Rangers (2017) [1080p] [YTS AG] 1.88 GB 7179 2172 6 days 1 hour
[i] Power Rangers (2017) [720p] [YTS AG] 910.34 MB 6135 2285 6 days 1 hour
[i] The Zookeeper's Wife (2017) [720p] [YTS AG] 929.77 MB 2635 2119 2 days 1 day
[i] Song to Song (2017) [720p] [YTS AG] 946.25 MB 1892 1442 5 days 4 days
[i] Song to Song (2017) [1080p] [YTS AG] 1.96 GB 1560 917 5 days 4 days
[i] Cars 3 2017 TS XViD AC3-N O K 1.4 GB 1184 1399 2 days 1 day
[i] Alone in Berlin (2016) [1080p] [YTS AG] 1.57 GB 1082 638 5 days 4 days
[i] Red Dog True Blue (2016) [720p] [YTS AG] 649 MB 934 389 3 days 2 days
[i] Alone in Berlin (2016) [720p] [YTS AG] 763.93 MB 924 165 5 days 1 day
[i] Apprentice (2016) [720p] [YTS AG] 715.21 MB 1351 820 1 day 1 hour