Central Intelligence 2016 HC WEBRip XviD MP3-STUTTERSHIT

DOWNLOAD TORRENT

Posted on July 14, 2016 in Movies » Comedy , verified torrent

Size: 1.41 GB , Seeds: 80 , Peers: 2 ( Updated September 16, 2016 - Refresh )

* Download via Magnet Link * To download files you need a Bittorrent Client ,

Scrape History ( seeds + peers )

Internal Files

Central.Intelligence.2016.HC.WEBRip.XviD.MP3-STUTTERSHIT
Central.Intelligence.2016.HC.WEBRip.XviD.MP3-STUTTERSHIT.avi   1.41 GB
Central.Intelligence.2016.HC.WEBRip.XviD.MP3-STUTTERSHIT.nfo   3.07 KB
RARBG.com.txt   34 Byte

Hash Code

9b21a4e7e4caa503bed878c9d290d974c5b9ed97

Description





https://rarbg.to/





SCREENSHOT

SCREENSHOT

SCREENSHOT

SCREENSHOT

SCREENSHOT

SCREENSHOT







[mediainfo]

Video

ID : 0

Format : MPEG-4 Visual

Format profile : [email protected]

Format settings, BVOP : No

Format settings, QPel : No

Format settings, GMC : No warppoints

Format settings, Matrix : Default (H.263)

Codec ID : XVID

Codec ID/Hint : XviD

Duration : 1h 51mn

Bit rate : 1 600 Kbps

Width : 720 pixels

Height : 304 pixels

Display aspect ratio : 2.40:1

Frame rate : 23.976 (23976/1000) fps

Color space : YUV

Chroma subsampling : 4:2:0

Bit depth : 8 bits

Scan type : Progressive

Compression mode : Lossy

Bits/(Pixel*Frame) : 0.305

Stream size : 1.25 GiB (89%)

Writing library : Lavc57.16.101



Audio

ID : 1

Format : MPEG Audio

Format version : Version 1

Format profile : Layer 3

Mode : Joint stereo

Codec ID : 55

Codec ID/Hint : MP3

Duration : 1h 51mn

Bit rate mode : Constant

Bit rate : 192 Kbps

Channel(s) : 2 channels

Sampling rate : 48.0 KHz

Compression mode : Lossy

Stream size : 153 MiB (11%)

Alignment : Aligned on interleaves

Interleave, duration : 24 ms (0.58 video frame)

Interleave, preload duration : 504 ms

Writing library : LAMEª'eþ\‡é»Ux›|®Ã9







[/mediainfo]

Torrent location

http://kat.cr/central-intelligence-2016-hc-webrip-xvid-mp3-stuttershit-t12942363.html

Trackers

Refresh Leechers : Updated September 16, 2016

1. udp://p4p.arenabg.com:1337/announce

2. udp://tracker.opentrackr.org:1337/announce

3. udp://tracker.coppersurfer.tk:6969/announce

4. udp://tracker.openbittorrent.com:80/announce

5. udp://9.rarbg.me:2710/announce

Comments

You must log in to add a comment.

Embed Code

Sharing Widget

Related torrents

FILENAME SIZE SEEDS PEERS ADDED UPD
[i] Central Intelligence (2016) HC - 720p HDRiP v2 - 999MB - ShAaNiG 1000.3 MB 1206 440 11 months 9 months
[i]
[i]
Central Intelligence 2016 HD-TS X264 AC3-CPG
Movies - Comedy , Quality: Audio 9/10 - Video 9/10
1.64 GB 1165 270 1 year 8 months
[i] Central.Intelligence.2016.UNRATED.1080p.BluRay.AC3.x264-ETRG 3.35 GB 387 122 8 months 7 months
[i]
[i]
Central Intelligence 2016 1080p HC WEBRip x264 AAC2 0-STUTTERSHIT
Movies - Comedy , Quality: Audio 8/10 - Video 8/10
3.74 GB 257 19 11 months 9 months
[i] Central Intelligence (2016) 1080p HC WEBRip 1.8GB - MkvCage 1.83 GB 173 33 11 months 9 months
[i] Central Intelligence (2016) HC - 1080p HDRiP - 2GB - ShAaNiG 2 GB 172 17 11 months 8 months
[i]
[i]
Central Intelligence (2016) HDTS 750MB - MkvCage
Movies - Comedy , Quality: Audio 7/10 - Video 7/10
753.3 MB 147 6 1 year 8 months
[i] Central Intelligence 2016 720p - HDTS - Zi$t-CTRC 929.3 MB 137 3 12 months 10 months
[i] Central Intelligence 2016 New HD-TS 600 MB - iExTV 601.3 MB 111 3 1 year 10 months
[i] Central Intelligence 2016 720p HC-WEBRip - x265 HEVC - Zi$t-CTRC 716.3 MB 109 24 11 months 8 months

Top Movies ( auto generated report )

FILENAME SIZE SEEDS PEERS ADDED UPD
[i] Power Rangers (2017) [1080p] [YTS AG] 1.88 GB 7179 2172 6 days 1 hour
[i] Power Rangers (2017) [720p] [YTS AG] 910.34 MB 6135 2285 6 days 1 hour
[i] The Zookeeper's Wife (2017) [720p] [YTS AG] 929.77 MB 2635 2119 2 days 1 day
[i] Song to Song (2017) [720p] [YTS AG] 946.25 MB 1892 1442 5 days 4 days
[i] Song to Song (2017) [1080p] [YTS AG] 1.96 GB 1560 917 5 days 4 days
[i] Cars 3 2017 TS XViD AC3-N O K 1.4 GB 1184 1399 2 days 1 day
[i] Alone in Berlin (2016) [1080p] [YTS AG] 1.57 GB 1082 638 5 days 4 days
[i] Red Dog True Blue (2016) [720p] [YTS AG] 649 MB 934 389 3 days 2 days
[i] Alone in Berlin (2016) [720p] [YTS AG] 763.93 MB 924 165 5 days 1 day
[i] Apprentice (2016) [720p] [YTS AG] 715.21 MB 1351 820 1 day 1 hour