Bit Torrent Scene a public file sharing platform Home Categories Blog About

advertising ( remove )

Central Intelligence 2016 HC WEBRip XviD MP3-STUTTERSHIT

DOWNLOAD TORRENT

Posted on July 14, 2016 in Movies » Comedy , verified torrent

Size: 1.41 GB , Seeds: 214 , Peers: 48 ( Updated July 29, 2016 - Refresh )

* Download via Magnet Link * To download files you need a Bittorrent Client ,

advertising ( remove )

External Info

Trailer | Wikipedia | Other Info

Internal Files

Central.Intelligence.2016.HC.WEBRip.XviD.MP3-STUTTERSHIT
Central.Intelligence.2016.HC.WEBRip.XviD.MP3-STUTTERSHIT.avi   1.41 GB
Central.Intelligence.2016.HC.WEBRip.XviD.MP3-STUTTERSHIT.nfo   3.07 KB
RARBG.com.txt   34 Byte

Hash Code

9b21a4e7e4caa503bed878c9d290d974c5b9ed97

Description





https://rarbg.to/





SCREENSHOT

SCREENSHOT

SCREENSHOT

SCREENSHOT

SCREENSHOT

SCREENSHOT







[mediainfo]

Video

ID : 0

Format : MPEG-4 Visual

Format profile : [email protected]

Format settings, BVOP : No

Format settings, QPel : No

Format settings, GMC : No warppoints

Format settings, Matrix : Default (H.263)

Codec ID : XVID

Codec ID/Hint : XviD

Duration : 1h 51mn

Bit rate : 1 600 Kbps

Width : 720 pixels

Height : 304 pixels

Display aspect ratio : 2.40:1

Frame rate : 23.976 (23976/1000) fps

Color space : YUV

Chroma subsampling : 4:2:0

Bit depth : 8 bits

Scan type : Progressive

Compression mode : Lossy

Bits/(Pixel*Frame) : 0.305

Stream size : 1.25 GiB (89%)

Writing library : Lavc57.16.101



Audio

ID : 1

Format : MPEG Audio

Format version : Version 1

Format profile : Layer 3

Mode : Joint stereo

Codec ID : 55

Codec ID/Hint : MP3

Duration : 1h 51mn

Bit rate mode : Constant

Bit rate : 192 Kbps

Channel(s) : 2 channels

Sampling rate : 48.0 KHz

Compression mode : Lossy

Stream size : 153 MiB (11%)

Alignment : Aligned on interleaves

Interleave, duration : 24 ms (0.58 video frame)

Interleave, preload duration : 504 ms

Writing library : LAMEª'eþ\‡é»Ux›|®Ã9







[/mediainfo]

Torrent location

https://kat.cr/central-intelligence-2016-hc-webrip-xvid-mp3-stuttershit-t12942363.html

Scrape History ( seeds + peers )

Trackers

Refresh Leechers : Updated July 29, 2016

1. udp://p4p.arenabg.com:1337/announce

2. udp://tracker.opentrackr.org:1337/announce

3. udp://tracker.coppersurfer.tk:6969/announce

4. udp://tracker.openbittorrent.com:80/announce

5. udp://9.rarbg.me:2710/announce

Comments

You must log in to add a comment.

Embed Code

Sharing Widget

Related torrents

FILENAME SIZE SEEDS PEERS ADDED UPD
[i]
[i]
Central.Intelligence.2016.HC.HDRip.XviD.AC3-EVO
Movies - Action , Quality: Audio 5/10 - Video 5/10
1.38 GB 4701 1143 1 month 1 week
[i]
[i]
Central Intelligence (2016) 720p HC WEBRip 850MB - MkvCage
Movies - Comedy , Quality: Audio 9/10 - Video 9/10
854.3 MB 2072 999 1 month 19 hours
[i]
[i]
Central Intelligence 2016 HD-TS X264 AC3-CPG
Movies - Comedy , Quality: Audio 9/10 - Video 9/10
1.64 GB 1821 446 2 months 3 days
[i] Central Intelligence (2016) HC - 720p HDRiP v2 - 999MB - ShAaNiG 1000.3 MB 1707 369 1 month 4 weeks
[i]
[i]
Central Intelligence 2016 1080p HC WEBRip x264 AAC2 0-STUTTERSHIT
Movies - Comedy , Quality: Audio 8/10 - Video 8/10
3.74 GB 1183 305 1 month 1 month
[i] Central Intelligence 2016 720p - HC - HDRip - 825MB - GoenWae 834.3 MB 418 38 1 month 3 weeks
[i] Central Intelligence (2016) HC - 1080p HDRiP - 2GB - ShAaNiG 2 GB 407 60 1 month 1 week
[i] Central Intelligence 2016 HC WEBRip x264-STUTTERSHIT 988.15 MB 203 13 1 month 1 month
[i]
[i]
Central Intelligence (2016) HDTS 750MB - MkvCage
Movies - Comedy , Quality: Audio 7/10 - Video 7/10
753.3 MB 189 10 2 months 3 days
[i] Central.Intelligence.2016.1080p.HC.WEBRip.x264.AAC2.0-STUTTERSHIT[PRiME] 3.74 GB 187 39 1 month 1 week

Top Movies ( auto generated report )

FILENAME SIZE SEEDS PEERS ADDED UPD
[i] Now.You.See.Me.2.2016.1080p.BluRay.x264.AC3-JYK 2.93 GB 8132 5852 1 day 23 hours
[i] Blood.Father.2016.HDRip.XViD-ETRG 711.3 MB 7851 3968 2 days 14 hours
[i] The Conjuring 2 (2016) 720p BluRay - 1.2GB - ShAaNiG 1.2 GB 7125 5490 1 day 15 hours
[i] Jason.Bourne.720p.HDTC.X264-NUKU
Movies - Action , Quality: Audio 8/10 - Video 8/10
2.49 GB 8020 6984 4 hours 2 hours
[i] Jason Bourne (2016) 720p HDTC 850MB - MkvCage 904.3 MB 4312 2138 1 day 11 hours
[i] Blood.Father.2016.720p.WEBRip.x264.AAC-ETRG 662.3 MB 4159 2580 1 day 5 hours
[i] War Dogs 2016 HD-TS x264-CPG 2.1 GB 3948 3105 1 day 4 hours
[i] The.Conjuring.2.2016.720p.BRRip.x264.AAC-ETRG 1004.3 MB 3885 3190 1 day 5 hours
[i] Our.Kind.of.Traitor.2016.HDRip.XviD.AC3-EVO 1.41 GB 3922 4367 4 hours 2 hours
[i] Genius.2016.HDRip.XviD.AC3-EVO 1.39 GB 2250 1125 4 days 3 days
advertising ( remove )