Charmed S01 480i DVD REMUX MPEG-2 DD2 0

DOWNLOAD TORRENT

Posted on May 20, 2017 in Series » Misc

Size: 35.2 GB , Seeds: 1 , Peers: 4 ( Updated May 26, 2017 - Refresh )

* Download via Magnet Link * To download files you need a Bittorrent Client ,

Scrape History ( seeds + peers )

Internal Files

Charmed.S01.480i.DVD.REMUX.MPEG-2.DD2.0
Charmed.S01E01.Something.Wicca.This.Way.Comes.480i.DVD.REMUX.MPEG-2.DD2.0.mkv   1.57 GB
Charmed.S01E02.Ive.Got.You.Under.My.Skin.480i.DVD.REMUX.MPEG-2.DD2.0.mkv   1.59 GB
Charmed.S01E03.Thank.You.for.Not.Morphing.480i.DVD.REMUX.MPEG-2.DD2.0.mkv   1.62 GB
Charmed.S01E04.Dead.Man.Dating.480i.DVD.REMUX.MPEG-2.DD2.0.mkv   1.61 GB
Charmed.S01E05.Dream.Sorcerer.480i.DVD.REMUX.MPEG-2.DD2.0.mkv   1.56 GB
Charmed.S01E06.The.Wedding.from.Hell.480i.DVD.REMUX.MPEG-2.DD2.0.mkv   1.6 GB
Charmed.S01E07.The.Fourth.Sister.480i.DVD.REMUX.MPEG-2.DD2.0.mkv   1.57 GB
Charmed.S01E08.The.Truth.Is.Out.There.and.It.Hurts.480i.DVD.REMUX.MPEG-2.DD2.0.mkv   1.6 GB
Charmed.S01E09.The.Witch.Is.Back.480i.DVD.REMUX.MPEG-2.DD2.0.mkv   1.55 GB
Charmed.S01E10.Wicca.Envy.480i.DVD.REMUX.MPEG-2.DD2.0.mkv   1.63 GB
Charmed.S01E11.Feats.of.Clay.480i.DVD.REMUX.MPEG-2.DD2.0.mkv   1.62 GB
Charmed.S01E12.The.Wendigo.480i.DVD.REMUX.MPEG-2.DD2.0.mkv   1.63 GB
Charmed.S01E13.From.Fear.to.Eternity.480i.DVD.REMUX.MPEG-2.DD2.0.mkv   1.59 GB
Charmed.S01E14.Secrets.and.Guys.480i.DVD.REMUX.MPEG-2.DD2.0.mkv   1.62 GB
Charmed.S01E15.Is.There.a.Woogy.in.the.House.480i.DVD.REMUX.MPEG-2.DD2.0.mkv   1.58 GB
Charmed.S01E16.Which.Prue.Is.It.Anyway.480i.DVD.REMUX.MPEG-2.DD2.0.mkv   1.61 GB
Charmed.S01E17.That.70s.Episode.480i.DVD.REMUX.MPEG-2.DD2.0.mkv   1.62 GB
Charmed.S01E18.When.Bad.Warlocks.Go.Good.480i.DVD.REMUX.MPEG-2.DD2.0.mkv   1.61 GB
Charmed.S01E19.Out.of.Sight.480i.DVD.REMUX.MPEG-2.DD2.0.mkv   1.61 GB
Charmed.S01E20.The.Power.of.Two.480i.DVD.REMUX.MPEG-2.DD2.0.mkv   1.6 GB
Charmed.S01E21.Love.Hurts.480i.DVD.REMUX.MPEG-2.DD2.0.mkv   1.62 GB
Charmed.S01E22.Deja.Vu.All.Over.Again.480i.DVD.REMUX.MPEG-2.DD2.0.mkv   1.59 GB

Hash Code

b7b73bb24a0f7f09689455926e74bdc379d3fa51

Description

General

Unique ID : 89585418902684340396740867462105859559 (0x4365862A671E045D68FCB024C7A705E7)

Complete name : Charmed.S01E01.Something.Wicca.This.Way.Comes.480i.DVD.REMUX.MPEG-2.DD2.0.mkv

Format : Matroska

Format version : Version 4 / Version 2

File size : 1.57 GiB

Duration : 43mn 29s

Overall bit rate mode : Variable

Overall bit rate : 5 182 Kbps

Encoded date : UTC 2017-03-30 01:26:56

Writing application : mkvmerge v10.0.0 ('To Drown In You') 64bit

Writing library : libebml v1.3.4 + libmatroska v1.4.5

DURATION : 00:42:17.600000000

NUMBER_OF_FRAMES : 928

NUMBER_OF_BYTES : 67068

_STATISTICS_WRITING_APP : mkvmerge v10.0.0 ('To Drown In You') 64bit

_STATISTICS_WRITING_DATE_UTC : 2017-03-30 01:26:56

_STATISTICS_TAGS : BPS DURATION NUMBER_OF_FRAMES NUMBER_OF_BYTES


Video

ID : 1

Format : MPEG Video

Format version : Version 2

Format profile : [email protected]/* */

Format settings, BVOP : No

Format settings, Matrix : Custom

Format settings, picture structure : Frame

Codec ID : V_MPEG2

Codec ID/Info : MPEG 1 or 2 Video

Duration : 43mn 29s

Bit rate mode : Variable

Bit rate : 4 887 Kbps

Maximum bit rate : 9 800 Kbps

Width : 720 pixels

Height : 480 pixels

Display aspect ratio : 4:3

Frame rate mode : Constant

Frame rate : 29.970 fps

Standard : NTSC

Color space : YUV

Chroma subsampling : 4:2:0

Bit depth : 8 bits

Scan type : Interlaced

Scan order : Top Field First

Compression mode : Lossy

Bits/(Pixel*Frame) : 0.472

Time code of first frame : 00:00:00:00

Time code source : Group of pictures header

Stream size : 1.48 GiB (94%)

Title : MPEG-2 Video / 4987 kbps / 480i / 29.970 fps / 4:3

Language : English

Default : Yes

Forced : No

DURATION : 00:43:29.673000000

NUMBER_OF_FRAMES : 78212

NUMBER_OF_BYTES : 1626937552

_STATISTICS_WRITING_APP : mkvmerge v10.0.0 ('To Drown In You') 64bit

_STATISTICS_WRITING_DATE_UTC : 2017-03-30 01:26:56

_STATISTICS_TAGS : BPS DURATION NUMBER_OF_FRAMES NUMBER_OF_BYTES


Audio

ID : 2

Format : AC-3

Format/Info : Audio Coding 3

Mode extension : CM (complete main)

Format settings, Endianness : Big

Codec ID : A_AC3

Duration : 43mn 29s

Bit rate mode : Constant

Bit rate : 192 Kbps

Channel(s) : 2 channels

Channel positions : Front: L R

Sampling rate : 48.0 KHz

Bit depth : 16 bits

Compression mode : Lossy

Stream size : 59.7 MiB (4%)

Title : Dolby Digital Audio / 2.0 / 48 kHz / 192 kbps

Language : English

Default : Yes

Forced : No

DURATION : 00:43:29.504000000

NUMBER_OF_FRAMES : 81547

NUMBER_OF_BYTES : 62628096

_STATISTICS_WRITING_APP : mkvmerge v10.0.0 ('To Drown In You') 64bit

_STATISTICS_WRITING_DATE_UTC : 2017-03-30 01:26:56

_STATISTICS_TAGS : BPS DURATION NUMBER_OF_FRAMES NUMBER_OF_BYTES


Text

ID : 3

Format : ASS

Codec ID : S_TEXT/ASS

Codec ID/Info : Advanced Sub Station Alpha

Compression mode : Lossless

Title : CC

Language : English

Default : No

Forced : No


Menu

00:00:00.000 : en:Chapter 01

00:04:41.347 : en:Chapter 02

00:18:47.493 : en:Chapter 03

00:26:38.663 : en:Chapter 04

00:36:37.995 : en:Chapter 05

00:42:46.030 : en:Chapter 06

Torrent location

https://www.1337x.to/torrent/2219737/Charmed-S01-480i-DVD-REMUX-MPEG-2-DD2-0/

Trackers

Refresh Leechers : Updated May 26, 2017

1. http://explodie.org:6969/announce

2. http://tracker.tfile.me/announce

3. http://bigfoot1942.sektori.org:6969/announce

4. http://tracker2.wasabii.com.tw:6969/announce

5. http://tracker.mg64.net:6881/announce

6. http://bt.artvid.ru:6969/announce

7. http://tracker1.wasabii.com.tw:6969/announce

8. http://open.acgtracker.com:1096/announce

9. http://tracker.opentrackr.org/announce

10. http://mvgroup.org:2710/announce

11. udp://mgtracker.org:6969/announce

12. udp://asnet.pw:2710/announce

13. udp://tracker.mgtracker.org:2710/announce

14. udp://tracker4.piratux.com:6969/announce

15. udp://tracker.trackerfix.com:80/announce

16. udp://tracker.pomf.se:80/announce

17. udp://torrent.gresille.org:80/announce

18. udp://p4p.arenabg.com:1337

19. udp://ipv4.tracker.harry.lu:80/announce

20. udp://inferno.demonoid.ooo:3389/announce

21. udp://tracker.blackunicorn.xyz:6969/announce

22. udp://tracker.internetwarriors.net:1337/announce

23. udp://tracker.openbittorrent.com:80/announce

24. udp://eddie4.nl:6969/announce

25. udp://tracker.leechers-paradise.org:6969/announce

26. udp://tracker.opentrackr.org:1337/announce

27. udp://tracker.zer0day.to:1337/announce

28. udp://p4p.arenabg.ch:1337/announce

29. udp://tracker.coppersurfer.tk:6969/announce

30. udp://9.rarbg.to:2710/announce

31. udp://9.rarbg.com:2710/announce

32. udp://9.rarbg.me:2710/announce

33. udp://open.demonii.com:1337

34. udp://glotorrents.pw:6969/announce

35. udp://tracker.coppersurfer.tk:6969/announce

Comments

You must log in to add a comment.

Embed Code

Sharing Widget

Top Series ( auto generated report )

FILENAME SIZE SEEDS PEERS ADDED UPD
[i] Prison.Break.S05E08.HDTV.x264-KILLERS[ettv] 287.56 MB 7887 1532 3 days 2 days
[i] The.Flash.2014.S03E23.HDTV.x264-SVA[eztv].mkv 253.41 MB 5088 2369 3 days 2 days
[i] Arrow.S05E23.HDTV.x264-SVA[ettv] 398.5 MB 5066 1430 2 days 1 day
[i] The.Flash.2014.S03E23.PROPER.HDTV.x264-KILLERS[ettv] 249.77 MB 4759 1060 3 days 2 days
[i] Better.Call.Saul.S03E07.HDTV.x264-SVA[eztv].mkv 274.41 MB 4214 1084 4 days 3 days
[i] Prison.Break.S05E08.HDTV.x264-KILLERS[eztv].mkv 287.66 MB 3673 693 3 days 2 days
[i] Lucifer.S02E17.HDTV.x264-KILLERS[eztv].mkv 324.29 MB 3428 596 5 days 4 days
[i] The.100.S04E13.HDTV.x264-SVA[ettv] 366.5 MB 3101 762 2 days 1 day
[i] Silicon.Valley.S04E05.HDTV.x264-SVA[ettv] 140.68 MB 3053 455 5 days 4 days
[i] The.Flash.2014.S03E23.PROPER.HDTV.x264-KILLERS[eztv].mkv 249.91 MB 3045 766 3 days 2 days