Charmed S04 480i DVD REMUX MPEG-2 DD2 0

DOWNLOAD TORRENT

Posted on May 20, 2017 in Series » Misc

Size: 37.14 GB , Seeds: 4 , Peers: 4 ( Updated May 20, 2017 - Refresh )

* Download via Magnet Link * To download files you need a Bittorrent Client ,

Scrape History ( seeds + peers )

Internal Files

Charmed.S04.480i.DVD.REMUX.MPEG-2.DD2.0
Charmed.S04E01E02.Charmed.Again.480i.DVD.REMUX.MPEG-2.DD2.0.mkv   3.36 GB
Charmed.S04E03.Hell.Hath.No.Fury.480i.DVD.REMUX.MPEG-2.DD2.0.mkv   1.69 GB
Charmed.S04E04.Enter.the.Demon.480i.DVD.REMUX.MPEG-2.DD2.0.mkv   1.72 GB
Charmed.S04E05.Size.Matters.480i.DVD.REMUX.MPEG-2.DD2.0.mkv   1.64 GB
Charmed.S04E06.A.Knight.to.Remember.480i.DVD.REMUX.MPEG-2.DD2.0.mkv   1.66 GB
Charmed.S04E07.Brain.Drain.480i.DVD.REMUX.MPEG-2.DD2.0.mkv   1.7 GB
Charmed.S04E08.Black.as.Cole.480i.DVD.REMUX.MPEG-2.DD2.0.mkv   1.66 GB
Charmed.S04E09.Muse.to.My.Ears.480i.DVD.REMUX.MPEG-2.DD2.0.mkv   1.66 GB
Charmed.S04E10.A.Paige.from.the.Past.480i.DVD.REMUX.MPEG-2.DD2.0.mkv   1.73 GB
Charmed.S04E11.Trial.by.Magic.480i.DVD.REMUX.MPEG-2.DD2.0.mkv   1.73 GB
Charmed.S04E12.Lost.and.Bound.480i.DVD.REMUX.MPEG-2.DD2.0.mkv   1.67 GB
Charmed.S04E13.Charmed.and.Dangerous.480i.DVD.REMUX.MPEG-2.DD2.0.mkv   1.72 GB
Charmed.S04E14.The.Three.Faces.of.Phoebe.480i.DVD.REMUX.MPEG-2.DD2.0.mkv   1.73 GB
Charmed.S04E15.Marry-Go-Round.480i.DVD.REMUX.MPEG-2.DD2.0.mkv   1.73 GB
Charmed.S04E16.The.Fifth.Halliwell.480i.DVD.REMUX.MPEG-2.DD2.0.mkv   1.67 GB
Charmed.S04E17.Saving.Private.Leo.480i.DVD.REMUX.MPEG-2.DD2.0.mkv   1.69 GB
Charmed.S04E18.Bite.Me.480i.DVD.REMUX.MPEG-2.DD2.0.mkv   1.69 GB
Charmed.S04E19.Were.Off.to.See.the.Wizard.480i.DVD.REMUX.MPEG-2.DD2.0.mkv   1.69 GB
Charmed.S04E20.Long.Live.the.Queen.480i.DVD.REMUX.MPEG-2.DD2.0.mkv   1.67 GB
Charmed.S04E21.Womb.Raider.480i.DVD.REMUX.MPEG-2.DD2.0.mkv   1.61 GB
Charmed.S04E22.Witch.Way.Now.480i.DVD.REMUX.MPEG-2.DD2.0.mkv   1.7 GB

Hash Code

91b61d6f1b6bb6be41acbfd5fa29c632791b6025

Description

General

Unique ID : 259106139178502031311344824397981986313 (0xC2EE06F802C35A6B31C0E1049D76AE09)

Complete name : Charmed.S04E01E02.Charmed.Again.480i.DVD.REMUX.MPEG-2.DD2.0.mkv

Format : Matroska

Format version : Version 4 / Version 2

File size : 3.36 GiB

Duration : 1h 26mn

Overall bit rate mode : Variable

Overall bit rate : 5 568 Kbps

Encoded date : UTC 2017-05-11 21:02:59

Writing application : mkvmerge v11.0.0 ('Alive') 64bit

Writing library : libebml v1.3.4 + libmatroska v1.4.5

DURATION : 01:24:54.380000000

NUMBER_OF_FRAMES : 1686

NUMBER_OF_BYTES : 118034

_STATISTICS_WRITING_APP : mkvmerge v11.0.0 ('Alive') 64bit

_STATISTICS_WRITING_DATE_UTC : 2017-05-11 21:02:59

_STATISTICS_TAGS : BPS DURATION NUMBER_OF_FRAMES NUMBER_OF_BYTES


Video

ID : 1

Format : MPEG Video

Format version : Version 2

Format profile : [email protected]/* */

Format settings, BVOP : No

Format settings, Matrix : Custom

Format settings, picture structure : Frame

Codec ID : V_MPEG2

Codec ID/Info : MPEG 1 or 2 Video

Duration : 1h 26mn

Bit rate mode : Variable

Bit rate : 5 073 Kbps

Maximum bit rate : 9 800 Kbps

Width : 720 pixels

Height : 480 pixels

Display aspect ratio : 4:3

Frame rate mode : Constant

Frame rate : 29.970 fps

Standard : NTSC

Color space : YUV

Chroma subsampling : 4:2:0

Bit depth : 8 bits

Scan type : Interlaced

Scan order : Top Field First

Compression mode : Lossy

Bits/(Pixel*Frame) : 0.490

Time code of first frame : 00:00:00:00

Time code source : Group of pictures header

Stream size : 3.06 GiB (91%)

Title : MPEG-2 Video / 5181 kbps / 480i / 29.970 fps / 4:3

Default : Yes

Forced : No

DURATION : 01:26:19.974000000

NUMBER_OF_FRAMES : 155244

NUMBER_OF_BYTES : 3354602315

_STATISTICS_WRITING_APP : mkvmerge v11.0.0 ('Alive') 64bit

_STATISTICS_WRITING_DATE_UTC : 2017-05-11 21:02:59

_STATISTICS_TAGS : BPS DURATION NUMBER_OF_FRAMES NUMBER_OF_BYTES


Audio #1

ID : 2

Format : AC-3

Format/Info : Audio Coding 3

Mode extension : CM (complete main)

Format settings, Endianness : Big

Codec ID : A_AC3

Duration : 1h 26mn

Bit rate mode : Constant

Bit rate : 192 Kbps

Channel(s) : 2 channels

Channel positions : Front: L R

Sampling rate : 48.0 KHz

Bit depth : 16 bits

Compression mode : Lossy

Stream size : 119 MiB (3%)

Title : Dolby Digital Audio / 2.0 / 48 kHz / 192 kbps

Language : English

Default : Yes

Forced : No

DURATION : 01:26:19.776000000

NUMBER_OF_FRAMES : 161868

NUMBER_OF_BYTES : 124314624

_STATISTICS_WRITING_APP : mkvmerge v11.0.0 ('Alive') 64bit

_STATISTICS_WRITING_DATE_UTC : 2017-05-11 21:02:59

_STATISTICS_TAGS : BPS DURATION NUMBER_OF_FRAMES NUMBER_OF_BYTES


Audio #2

ID : 3

Format : AC-3

Format/Info : Audio Coding 3

Mode extension : CM (complete main)

Format settings, Endianness : Big

Codec ID : A_AC3

Duration : 1h 26mn

Bit rate mode : Constant

Bit rate : 192 Kbps

Channel(s) : 2 channels

Channel positions : Front: L R

Sampling rate : 48.0 KHz

Bit depth : 16 bits

Compression mode : Lossy

Stream size : 119 MiB (3%)

Title : Dolby Digital Audio / 2.0 / 48 kHz / 192 kbps

Language : French

Default : No

Forced : No

DURATION : 01:26:19.776000000

NUMBER_OF_FRAMES : 161868

NUMBER_OF_BYTES : 124314624

_STATISTICS_WRITING_APP : mkvmerge v11.0.0 ('Alive') 64bit

_STATISTICS_WRITING_DATE_UTC : 2017-05-11 21:02:59

_STATISTICS_TAGS : BPS DURATION NUMBER_OF_FRAMES NUMBER_OF_BYTES


Text

ID : 4

Format : ASS

Codec ID : S_TEXT/ASS

Codec ID/Info : Advanced Sub Station Alpha

Compression mode : Lossless

Title : CC

Language : English

Default : No

Forced : No


Menu

00:00:00.000 : en:Chapter 01

00:03:58.037 : en:Chapter 02

00:13:55.367 : en:Chapter 03

00:27:20.639 : en:Chapter 04

00:36:48.005 : en:Chapter 05

00:58:50.326 : en:Chapter 06

01:07:59.008 : en:Chapter 07

01:14:37.005 : en:Chapter 08

01:25:19.314 : en:Chapter 09

Torrent location

https://www.1337x.to/torrent/2219752/Charmed-S04-480i-DVD-REMUX-MPEG-2-DD2-0/

Trackers

Refresh Leechers : Updated May 20, 2017

1. http://explodie.org:6969/announce

2. http://tracker.tfile.me/announce

3. http://bigfoot1942.sektori.org:6969/announce

4. http://tracker2.wasabii.com.tw:6969/announce

5. http://tracker.mg64.net:6881/announce

6. http://bt.artvid.ru:6969/announce

7. http://tracker1.wasabii.com.tw:6969/announce

8. http://open.acgtracker.com:1096/announce

9. http://tracker.opentrackr.org/announce

10. http://mvgroup.org:2710/announce

11. udp://mgtracker.org:6969/announce

12. udp://asnet.pw:2710/announce

13. udp://tracker.mgtracker.org:2710/announce

14. udp://tracker4.piratux.com:6969/announce

15. udp://tracker.trackerfix.com:80/announce

16. udp://tracker.pomf.se:80/announce

17. udp://torrent.gresille.org:80/announce

18. udp://p4p.arenabg.com:1337

19. udp://ipv4.tracker.harry.lu:80/announce

20. udp://inferno.demonoid.ooo:3389/announce

21. udp://tracker.blackunicorn.xyz:6969/announce

22. udp://tracker.internetwarriors.net:1337/announce

23. udp://tracker.openbittorrent.com:80/announce

24. udp://eddie4.nl:6969/announce

25. udp://tracker.leechers-paradise.org:6969/announce

26. udp://tracker.opentrackr.org:1337/announce

27. udp://tracker.zer0day.to:1337/announce

28. udp://p4p.arenabg.ch:1337/announce

29. udp://tracker.coppersurfer.tk:6969/announce

30. udp://9.rarbg.to:2710/announce

31. udp://9.rarbg.com:2710/announce

32. udp://9.rarbg.me:2710/announce

33. udp://open.demonii.com:1337

34. udp://glotorrents.pw:6969/announce

35. udp://tracker.coppersurfer.tk:6969/announce

Comments

You must log in to add a comment.

Embed Code

Sharing Widget

Top Series ( auto generated report )

FILENAME SIZE SEEDS PEERS ADDED UPD
[i] The.Flash.2014.S03E23.HDTV.x264-SVA[eztv].mkv 253.41 MB 5964 3303 18 hours 6 hours
[i] American.Gods.S01E04.WEBRip.X264-DEFLATE[ettv] 480.5 MB 1127 161 3 days 10 hours
[i] Better.Call.Saul.S03E07.HDTV.x264-SVA[eztv].mkv 274.41 MB 4214 1084 1 day 17 hours
[i] Greys.Anatomy.S13E24.HDTV.x264-KILLERS[ettv] 298.5 MB 924 336 5 days 10 hours
[i] Greys.Anatomy.S13E24.HDTV.x264-KILLERS[eztv].mkv 297.54 MB 1466 93 5 days 10 hours
[i] Lucifer.S02E17.HDTV.x264-KILLERS[eztv].mkv 324.29 MB 3428 596 2 days 1 day
[i] The.Blacklist.S04E22.HDTV.x264-KILLERS[eztv].mkv 228.41 MB 1374 161 5 days 10 hours
[i] The.Flash.2014.S03E22.WEB-DL.x264-FUM[ettv] 260.5 MB 3442 614 1 week 10 hours
[i] Silicon.Valley.S04E05.HDTV.x264-SVA[ettv] 140.68 MB 3053 455 2 days 1 day
[i] American.Gods.S01E04.HDTV.x264-FLEET[eztv].mkv 383.82 MB 1614 369 3 days 10 hours