Bit Torrent Scene a public file sharing platform Home Categories About

Warning! Use a VPN When Downloading Torrents!
Your IP Address is . Location is
Avoid LAWSUITS and FINES! Hide your IP ADDRESS with a VPN!
We strongly recommend using Trust.Zone VPN to anonymize your torrenting. It's FREE!
Get VPN Now for FREE!

Confessions of a Shopaholic - I Love Shopping (2009).H264.Italian.English.Ac3.5.1.sub.Ita.Eng.iCV-MIRCrew

DOWNLOAD TORRENT

Posted by robbyrs •2723 on August 26, 2016 in Movies » Comedy , verified torrent

Size: 1.55 GB , Seeds: 6 , Peers: 1 ( Updated October 29, 2016 - Refresh )

* Download via Magnet Link

Loading...

Scrape History ( seeds + peers )

Internal Files

I Love Shopping (2009).H264.ita.eng.sub.ita.eng.iCV-MIRCrew.mkv
I Love Shopping (2009).H264.ita.eng.sub.ita.eng.iCV-MIRCrew.mkv   1.55 GB

Hash Code

9b8e935c3a38fdf57eef251a712b17c4c1344710

Description

Confessions of a Shopaholic - I Love Shopping (2009).H264.Italian.English.Ac3.5.1.sub.Ita.Eng.iCV-MIRCrew



SCREENSHOT
NO FOUND ONLY ORIGINAL RELEASE

My release is always in double track audio italian and Original audio
for select it use VLC or dvd player home
not use wmp

I Love Shopping - Confessions of a Shopaholic (2009)

SCREENSHOT

SCREENSHOT

SCREENSHOT

Titolo originale Confessions of a Shopaholic
Lingua originale inglese
Paese di produzione Stati Uniti d'America
Anno 2009
Durata 107 min
Colore colore
Audio sonoro
Rapporto 2.35 : 1
Genere commedia, sentimentale
Regia P. J. Hogan
Soggetto Sophie Kinsella
Sceneggiatura Kayla Alpert, Tim Firth, Tracey Jackson
Produttore Jerry Bruckheimer
Casa di produzione Touchstone Pictures
Distribuzione (Italia) Buena Vista
Fotografia Jo Willems
Montaggio William Goldenberg
Musiche James Newton Howard
Scenografia Kristi Zea

SCREENSHOT


Isla Fisher: Rebecca Bloomwood
Hugh Dancy: Luke Brandon
Krysten Ritter: Suze
Joan Cusack: Jane Bloomwood
John Goodman: Graham Bloomwood
Kristin Scott Thomas: Alette Naylor
John Lithgow: Edgar West
Fred Armisen: Ryan Koenig
Leslie Bibb: Alicia Billington
Robert Stanton: Derek Smeath
Julie Hagerty: Hayley
Wendie Malick: miss Korch
Clea Lewis: miss Ptaszinski
Lennon Parham: Joyce


SCREENSHOT

Protagonista del film è Rebecca Bloomwood, chiamata anche Becky, ragazza totalmente irresponsabile, ossessionata dallo shopping. Il suo sogno di sempre è quello di scrivere per la rivista di moda "Alette", invece finisce a lavorare per una rivista economica "Far fortuna risparmiando", il cui capo-redattore è Luke Brandon, che fa subito breccia nel cuore di Becky.
SCREENSHOT

Struggling with her debilitating obsession with shopping and the sudden collapse of her income source, Rebecca Bloomwood unintentionally lands a job writing for a financial magazine after a drunken letter-mailing mix-up. Ironically writing about the very consumer caution of which she herself has not abided, Rebecca's innovative comparisons and unconventional metaphors for economics grants her critical acclaim, public success, and the admiration of her supportive boss Luke

SCREENSHOT

SCREENSHOT
SCREENSHOT
SCREENSHOT


SCREENSHOT


[spoiler]
General
Unique ID : 137439013856661988770904074452520379894 (0x6765CA8E236DB8F069EB5AC51243A5F6)
Complete name : I Love Shopping (2009).H264.ita.eng.sub.ita.eng.iCV-MIRCrew.mkv
Format : Matroska
Format version : Version 2
File size : 1.55 GiB
Duration : 1h 44mn
Overall bit rate : 2 134 Kbps
Movie name : Visit www.icv-crew.org
Encoded date : UTC 2016-08-21 08:46:53
Writing application : Lavf54.63.100
Writing library : Lavf54.63.100

Video
ID : 1
Format : AVC
Format/Info : Advanced Video Codec
Format profile : [email protected]
Format settings, CABAC : Yes
Format settings, ReFrames : 2 frames
Codec ID : V_MPEG4/ISO/AVC
Duration : 1h 44mn
Bit rate : 1 250 Kbps
Width : 720 pixels
Height : 300 pixels
Display aspect ratio : 2.40:1
Frame rate mode : Variable
Frame rate : 23.976 fps
Color space : YUV
Chroma subsampling : 4:2:0
Bit depth : 8 bits
Scan type : Progressive
Bits/(Pixel*Frame) : 0.241
Stream size : 891 MiB (56%)
Writing library : x264 core 130 r2273
Encoding settings : cabac=1 / ref=2 / deblock=1:0:0 / analyse=0x1:0x131 / me=hex / subme=7 / psy=1 / psy_rd=1.00:0.00 / mixed_ref=0 / me_range=16 / chroma_me=1 / trellis=1 / 8x8dct=0 / cqm=0 / deadzone=21,11 / fast_pskip=1 / chroma_qp_offset=-2 / threads=12 / lookahead_threads=2 / sliced_threads=0 / nr=0 / decimate=1 / interlaced=0 / bluray_compat=0 / constrained_intra=0 / bframes=3 / b_pyramid=0 / b_adapt=1 / b_bias=0 / direct=3 / weightb=1 / open_gop=0 / weightp=2 / keyint=230 / keyint_min=23 / scenecut=40 / intra_refresh=0 / rc_lookahead=40 / rc=abr / mbtree=1 / bitrate=1250 / ratetol=1.0 / qcomp=0.60 / qpmin=10 / qpmax=69 / qpstep=4 / vbv_maxrate=24000 / vbv_bufsize=24000 / nal_hrd=none / ip_ratio=1.40 / aq=1:1.00
Default : Yes
Forced : No
DURATION : 01:44:13.247000000
NUMBER_OF_FRAMES : 149928
NUMBER_OF_BYTES : 9294398529
_STATISTICS_WRITING_APP : mkvmerge v8.1.0 ('Psychedelic Postcard') 64bit
_STATISTICS_WRITING_DATE_UTC : 2016-06-27 09:57:31
_STATISTICS_TAGS : BPS DURATION NUMBER_OF_FRAMES NUMBER_OF_BYTES

Audio #1
ID : 2
Format : AC-3
Format/Info : Audio Coding 3
Mode extension : CM (complete main)
Codec ID : A_AC3
Duration : 1h 44mn
Bit rate mode : Constant
Bit rate : 448 Kbps
Channel(s) : 6 channels
Channel positions : Front: L C R, Side: L R, LFE
Sampling rate : 48.0 KHz
Bit depth : 16 bits
Compression mode : Lossy
Delay relative to video : 1mn 5s
Stream size : 334 MiB (21%)
Title : DTS ITA 5.1 1536 Kbps
Language : Italian
Default : Yes
Forced : No
DURATION : 01:44:13.291000000
NUMBER_OF_FRAMES : 586246
NUMBER_OF_BYTES : 1179526952
_STATISTICS_WRITING_APP : mkvmerge v8.1.0 ('Psychedelic Postcard') 64bit
_STATISTICS_WRITING_DATE_UTC : 2016-06-27 09:57:31
_STATISTICS_TAGS : BPS DURATION NUMBER_OF_FRAMES NUMBER_OF_BYTES

Audio #2
ID : 3
Format : AC-3
Format/Info : Audio Coding 3
Mode extension : CM (complete main)
Codec ID : A_AC3
Duration : 1h 44mn
Bit rate mode : Constant
Bit rate : 448 Kbps
Channel(s) : 6 channels
Channel positions : Front: L C R, Side: L R, LFE
Sampling rate : 48.0 KHz
Bit depth : 16 bits
Compression mode : Lossy
Delay relative to video : 1mn 5s
Stream size : 334 MiB (21%)
Title : AC3 ENG 5.1 448 Kbps
Language : English
Default : No
Forced : No
DURATION : 01:44:13.312000000
NUMBER_OF_FRAMES : 195416
NUMBER_OF_BYTES : 350185472
_STATISTICS_WRITING_APP : mkvmerge v8.1.0 ('Psychedelic Postcard') 64bit
_STATISTICS_WRITING_DATE_UTC : 2016-06-27 09:57:31
_STATISTICS_TAGS : BPS DURATION NUMBER_OF_FRAMES NUMBER_OF_BYTES

Text #1
ID : 4
Format : UTF-8
Codec ID : S_TEXT/UTF8
Codec ID/Info : UTF-8 Plain Text
Title : Sub forced ita
Language : Italian
Default : Yes
Forced : Yes
DURATION : 01:39:19.078000000
NUMBER_OF_FRAMES : 26
NUMBER_OF_BYTES : 694
_STATISTICS_WRITING_APP : mkvmerge v8.1.0 ('Psychedelic Postcard') 64bit
_STATISTICS_WRITING_DATE_UTC : 2016-06-27 09:57:31
_STATISTICS_TAGS : BPS DURATION NUMBER_OF_FRAMES NUMBER_OF_BYTES

Text #2
ID : 5
Format : UTF-8
Codec ID : S_TEXT/UTF8
Codec ID/Info : UTF-8 Plain Text
Title : Sub ita
Language : Italian
Default : No
Forced : No
DURATION : 01:39:42.268000000
NUMBER_OF_FRAMES : 1456
NUMBER_OF_BYTES : 55925
_STATISTICS_WRITING_APP : mkvmerge v8.1.0 ('Psychedelic Postcard') 64bit
_STATISTICS_WRITING_DATE_UTC : 2016-06-27 09:57:31
_STATISTICS_TAGS : BPS DURATION NUMBER_OF_FRAMES NUMBER_OF_BYTES

Text #3
ID : 6
Format : UTF-8
Codec ID : S_TEXT/UTF8
Codec ID/Info : UTF-8 Plain Text
Title : Sub eng
Language : English
Default : No
Forced : No
DURATION : 01:39:50.109000000
NUMBER_OF_FRAMES : 1618
NUMBER_OF_BYTES : 60027
_STATISTICS_WRITING_APP : mkvmerge v8.1.0 ('Psychedelic Postcard') 64bit
_STATISTICS_WRITING_DATE_UTC : 2016-06-27 09:57:31
_STATISTICS_TAGS : BPS DURATION NUMBER_OF_FRAMES NUMBER_OF_BYTES

Menu
00:00:00.000 : :00:00:00.000
00:04:21.553 : :00:04:21.553
00:09:14.554 : :00:09:14.554
00:14:47.428 : :00:14:47.428
00:21:18.277 : :00:21:18.277
00:25:55.763 : :00:25:55.763
00:30:08.974 : :00:30:08.974
00:36:29.187 : :00:36:29.187
00:40:52.617 : :00:40:52.617
00:46:10.935 : :00:46:10.935
00:53:01.261 : :00:53:01.261
00:58:58.535 : :00:58:58.535
01:04:30.450 : :01:04:30.450
01:07:26.042 : :01:07:26.042
01:12:30.763 : :01:12:30.763
01:17:46.662 : :01:17:46.662
01:23:31.882 : :01:23:31.882
01:29:43.545 : :01:29:43.545
01:34:08.643 : :01:34:08.643
01:39:19.912 : :01:39:19.912


[/spoiler]

Trackers

Refresh Leechers : Updated October 29, 2016

1. udp://tracker.leechers-paradise.org:6969/announce

2. udp://torrent.gresille.org:80/announce

3. udp://tracker.opentrackr.org:1337/announce

4. udp://tracker.coppersurfer.tk:6969/announce

5. udp://glotorrents.pw:6969/announce

6. udp://tracker.pomf.se:80/announce

7. udp://tracker.openbittorrent.com:80/announce

8. udp://tracker.coppersurfer.tk:6969/announce

9. udp://poloniumsurfer.tk:6969/announce

10. udp://9.rarbg.com:2710/announce

11. udp://9.rarbg.to:2710/announce

12. udp://9.rarbg.me:2710/announce

13. http://www.wareztorrent.com/announce

14. http://www.wareztorrent.com/announce

15. http://tracker.tfile.me/announce

16. http://tracker.dutchtracking.nl/announce

17. http://tracker.dutchtracking.nl:80/announce

18. http://tracker.tfile.me:80/announce

Comments

You must log in to add a comment.

Embed Code

Sharing Widget

Related torrents

FILENAME SIZE SEEDS PEERS ADDED UPD
[i] Confessions of a Shopaholic (2009) 720p BrRip x264 - YIFY 808.5 MB 41 6 2 years 12 months
[i] Confessions of a Shopaholic[2009]DvDrip[Eng]-FXG 700.96 MB 5 4 7 years 6 months
[i] Confessions.Of.A.Shopaholic.DVDRip.XviD-DiAMOND 707.82 MB 2 1 4 years 1 year
[i] Confessions of a Shopaholic (2009) TS XviD-LYNKS-NoRar¤ 716.65 MB 0 0 8 years 2 months
[i] Confessions Of A Shopaholic 2009 TS H264 AAC-SecretMyth (Kingdom-Release) 710.82 MB 0 0 8 years 2 months
[i] Confessions Of A Shopaholic DVDRip XviD-DiAMOND--WWW.RLSLOG.IN 701.3 MB 0 0 7 years 6 months
[i] Confessions Of A Shopaholic DVDRip XviD-DiAMOND-BTARENA 73.6 KB 0 0 7 years 6 months
[i] Confessions Of A Shopaholic 2009 BRRip H264 5 1 ch-SecretMyth (Kingdom-Release) 1.42 GB 0 1 7 years 6 months
[i] Confessions Of A Shopaholic 720p BluRay x264-iNFAMOUS 4.4 GB 0 0 7 years 6 months
[i] Confessions Of A Shopaholic BluRay 720p x264 AC3 WOFEI 2.19 GB 0 0 6 years 1 year

Top Movies ( auto generated report )

FILENAME SIZE SEEDS PEERS ADDED UPD
[i] Patriots Day 2016 1080p BluRay x264 DTS-JYK 3.36 GB 3746 3901 19 hours 17 hours
[i] The.Space.Between.Us.2017.HC.HDRip.XViD.AC3-ETRG 1.4 GB 3374 3964 3 days 2 days
[i] Breaking.Bad.The.Movie.2017.HDRip.XViD.AC3-ETRG 1.4 GB 1997 607 2 days 1 day
[i] Paterson (2016) [1080p] [YTS AG] 1.8 GB 1851 1108 4 days 3 days
[i] Resident.Evil.The.Final.Chapter.2016.1080p.BluRay.x264.DTS-JYK 2.69 GB 1737 717 2 days 13 hours
[i] Hidden.Figures.2016.720p.BRRip.x264.AAC-ETRG 949.3 MB 1676 1382 3 days 2 days
[i] Dig.Two.Graves.2014.HDRip.XViD-ETRG 712.3 MB 1474 1090 1 day 20 hours
[i] Prevenge.2016.HDRip.XViD-ETRG 709.3 MB 1457 1137 1 day 21 hours
[i] Bokeh.2017.HDRip.XViD-ETRG 709.3 MB 1417 852 3 days 2 days
[i] Resident.Evil.The.Final.Chapter.2016.1080p.BluRay.X264-AMIABLE[PinkiHacks] 7.95 GB 1297 1203 2 days 1 day
advertising ( remove )