Exposed - Nell ombra di un delitto (2016).H264.Italian.English.Ac3.5.1.sub.ita.eng.iCV-MIRCrew

DOWNLOAD TORRENT

Posted by robbyrs •2723 on August 5, 2016 in Movies » Thriller , verified torrent

Size: 1.49 GB , Seeds: 71 , Peers: 9 ( Updated November 12, 2016 - Refresh )

* Download via Magnet Link * To download files you need a Bittorrent Client ,

Scrape History ( seeds + peers )

Internal Files

Nell'ombra di un delitto - Exposed(2016).H264.ita.eng.sub.ita.eng.iCV-MIRCrew.mkv
Nell'ombra di un delitto - Exposed(2016).H264.ita.eng.sub.ita.eng.iCV-MIRCrew.mkv   1.49 GB

Hash Code

a42830c407ee38fe2df1d57c03e71b9d8b28debf

Description

Exposed - Nell ombra di un delitto (2016).H264.Italian.English.Ac3.5.1.sub.ita.eng.iCV-MIRCrew



SCREENSHOT
NO FOUND ONLY ORIGINAL RELEASE

My release is always in double track audio italian and Original audio
for select it use VLC or dvd player home
not use wmp

Nell'ombra di un delitto - Exposed (2016)

SCREENSHOT


SCREENSHOT

SCREENSHOT

Titolo originale Exposed
Paese di produzione Stati Uniti
Anno 2016
Genere thriller
Regia Declan Dale
Sceneggiatura Gee Malik Linton
Produttore Declan Dale, Robin Gurland, Keanu Reeves
Casa di produzione Emmett/Furla/Oasis Films, Grindstone Entertainment Group, PalmStar Entertainment, Remark Films
Fotografia Trevor Forrest
Montaggio Melody London
Musiche Carlos José Alvarez

SCREENSHOT



Keanu Reeves: Detective Scott Galban
Ana de Armas: Isabel de La Cruz
Christopher McDonald: Ten. Galway
Big Daddy Kane: Jonathan "Black" Jones
Mira Sorvino: Janine Cullen
Michael Rispoli: Detective Dibronski


SCREENSHOT

Il detective di polizia Scott Galban indaga sulle circostanze della morte del suo partner. A questo misterioso caso è legata anche una giovane donna di origini latine, di nome Isabel, che sostiene di avere delle visioni di "angeli". Apparentemente queste due storie parallele non hanno nulla in comune

SCREENSHOT

A police detective investigates the truth behind his partner's death. The mysterious case reveals disturbing police corruption and a dangerous secret involving an unlikely young woman.

SCREENSHOT

SCREENSHOT
SCREENSHOT
SCREENSHOT
SCREENSHOT

SCREENSHOT


[spoiler]
General
Unique ID : 75226374461683327308085932987461726557 (0x3898129DAB5EA6F5F40B4BE55DD4F15D)
Complete name : Nell'ombra di un delitto - Exposed (2016).H264.ita.eng.sub.ita.eng.iCV-MIRCrew.mkv
Format : Matroska
Format version : Version 2
File size : 1.49 GiB
Duration : 1h 42mn
Overall bit rate : 2 086 Kbps
Movie name : www.icv-crew.org
Encoded date : UTC 2016-08-04 19:11:56
Writing application : Lavf54.63.100
Writing library : Lavf54.63.100

Video
ID : 1
Format : AVC
Format/Info : Advanced Video Codec
Format profile : [email protected]
Format settings, CABAC : Yes
Format settings, ReFrames : 2 frames
Codec ID : V_MPEG4/ISO/AVC
Duration : 1h 42mn
Bit rate : 1 200 Kbps
Width : 720 pixels
Height : 300 pixels
Display aspect ratio : 2.40:1
Frame rate mode : Variable
Frame rate : 23.976 fps
Color space : YUV
Chroma subsampling : 4:2:0
Bit depth : 8 bits
Scan type : Progressive
Bits/(Pixel*Frame) : 0.232
Stream size : 839 MiB (55%)
Writing library : x264 core 130 r2273
Encoding settings : cabac=1 / ref=2 / deblock=1:0:0 / analyse=0x1:0x131 / me=hex / subme=7 / psy=1 / psy_rd=1.00:0.00 / mixed_ref=0 / me_range=16 / chroma_me=1 / trellis=1 / 8x8dct=0 / cqm=0 / deadzone=21,11 / fast_pskip=1 / chroma_qp_offset=-2 / threads=12 / lookahead_threads=2 / sliced_threads=0 / nr=0 / decimate=1 / interlaced=0 / bluray_compat=0 / constrained_intra=0 / bframes=3 / b_pyramid=0 / b_adapt=1 / b_bias=0 / direct=3 / weightb=1 / open_gop=0 / weightp=2 / keyint=230 / keyint_min=23 / scenecut=40 / intra_refresh=0 / rc_lookahead=40 / rc=abr / mbtree=1 / bitrate=1200 / ratetol=1.0 / qcomp=0.60 / qpmin=10 / qpmax=69 / qpstep=4 / vbv_maxrate=24000 / vbv_bufsize=24000 / nal_hrd=none / ip_ratio=1.40 / aq=1:1.00
Default : Yes
Forced : No
DURATION : 01:42:12.001000000
NUMBER_OF_FRAMES : 147021
NUMBER_OF_BYTES : 6514173869
_STATISTICS_WRITING_APP : mkvmerge v9.3.1 ('Mask Machine') 32bit
_STATISTICS_WRITING_DATE_UTC : 2016-07-26 21:08:36
_STATISTICS_TAGS : BPS DURATION NUMBER_OF_FRAMES NUMBER_OF_BYTES

Audio #1
ID : 2
Format : AC-3
Format/Info : Audio Coding 3
Mode extension : CM (complete main)
Codec ID : A_AC3
Duration : 1h 42mn
Bit rate mode : Constant
Bit rate : 448 Kbps
Channel(s) : 6 channels
Channel positions : Front: L C R, Side: L R, LFE
Sampling rate : 48.0 KHz
Bit depth : 16 bits
Compression mode : Lossy
Delay relative to video : 1mn 5s
Stream size : 327 MiB (21%)
Language : Italian
Default : No
Forced : No
DURATION : 01:42:12.032000000
NUMBER_OF_FRAMES : 191626
NUMBER_OF_BYTES : 490562560
_STATISTICS_WRITING_APP : mkvmerge v9.3.1 ('Mask Machine') 32bit
_STATISTICS_WRITING_DATE_UTC : 2016-07-26 21:08:36
_STATISTICS_TAGS : BPS DURATION NUMBER_OF_FRAMES NUMBER_OF_BYTES

Audio #2
ID : 3
Format : AC-3
Format/Info : Audio Coding 3
Mode extension : CM (complete main)
Codec ID : A_AC3
Duration : 1h 42mn
Bit rate mode : Constant
Bit rate : 448 Kbps
Channel(s) : 6 channels
Channel positions : Front: L C R, Side: L R, LFE
Sampling rate : 48.0 KHz
Bit depth : 16 bits
Compression mode : Lossy
Delay relative to video : 1mn 5s
Stream size : 327 MiB (21%)
Language : English
Default : No
Forced : No
DURATION : 01:42:12.000000000
NUMBER_OF_FRAMES : 574875
NUMBER_OF_BYTES : 1156648712
_STATISTICS_WRITING_APP : mkvmerge v9.3.1 ('Mask Machine') 32bit
_STATISTICS_WRITING_DATE_UTC : 2016-07-26 21:08:36
_STATISTICS_TAGS : BPS DURATION NUMBER_OF_FRAMES NUMBER_OF_BYTES

Text
ID : 4
Format : ASS
Codec ID : S_TEXT/ASS
Codec ID/Info : Advanced Sub Station Alpha
Compression mode : Lossless
Title : Sub. Ita. Non Udenti
Language : Italian
Default : No
Forced : No
DURATION : 01:32:01.932000000
NUMBER_OF_FRAMES : 913
NUMBER_OF_BYTES : 31547
_STATISTICS_WRITING_APP : mkvmerge v9.3.1 ('Mask Machine') 32bit
_STATISTICS_WRITING_DATE_UTC : 2016-07-26 21:08:36
_STATISTICS_TAGS : BPS DURATION NUMBER_OF_FRAMES NUMBER_OF_BYTES

Menu
00:00:00.000 : :00:00:00.000
00:05:59.859 : :00:05:59.859
00:15:10.118 : :00:15:10.118
00:21:10.436 : :00:21:10.436
00:27:34.778 : :00:27:34.778
00:37:33.376 : :00:37:33.376
00:44:49.020 : :00:44:49.020
00:51:31.338 : :00:51:31.338
01:01:38.278 : :01:01:38.278
01:06:46.753 : :01:06:46.753
01:17:01.992 : :01:17:01.992
01:22:33.824 : :01:22:33.824


[/spoiler]

Trackers

Refresh Leechers : Updated November 12, 2016

1. udp://tracker.leechers-paradise.org:6969/announce

2. udp://torrent.gresille.org:80/announce

3. udp://tracker.opentrackr.org:1337/announce

4. udp://tracker.coppersurfer.tk:6969/announce

5. udp://glotorrents.pw:6969/announce

6. udp://tracker.pomf.se:80/announce

7. udp://tracker.openbittorrent.com:80/announce

8. udp://tracker.coppersurfer.tk:6969/announce

9. udp://poloniumsurfer.tk:6969/announce

10. udp://9.rarbg.com:2710/announce

11. udp://9.rarbg.to:2710/announce

12. udp://9.rarbg.me:2710/announce

Comments

You must log in to add a comment.

Embed Code

Sharing Widget

Related torrents

FILENAME SIZE SEEDS PEERS ADDED UPD
[i] Exposed - Nell Ombra Di Un Delitto 2016 iTALiAN BDRip XviD-TRL[MT]
posted by Survivalofmisa in Movies - Thriller
1.37 GB 1 0 10 months 8 months

Top Movies ( auto generated report )

FILENAME SIZE SEEDS PEERS ADDED UPD
[i] Going in Style (2017) [720p] [YTS AG] 713.31 MB 7555 4189 3 days 2 days
[i] Going in Style (2017) [1080p] [YTS AG] 1.47 GB 6548 3336 3 days 2 days
[i] The Circle (2017) [1080p] [YTS AG] 1.68 GB 4522 2933 2 days 1 day
[i] The Circle (2017) [720p] [YTS AG] 812.53 MB 4292 3059 2 days 1 day
[i] Colossal (2016) [720p] [YTS AG] 797.03 MB 2620 1311 4 days 3 days
[i] S W A T - Under Siege (2017) [720p] [YTS AG] 665.25 MB 2586 1468 3 days 2 days
[i] Colossal (2016) [1080p] [YTS AG] 1.66 GB 2497 1293 4 days 3 days
[i] Sleight (2016) [720p] [YTS AG] 658.87 MB 1861 1053 4 days 3 days
[i] S W A T - Under Siege (2017) [1080p] [YTS AG] 1.36 GB 1817 972 3 days 2 days
[i] The Girl from the Song (2017) [1080p] [YTS AG] 1.56 GB 1472 891 2 days 1 day