Bit Torrent Scene a public file sharing platform Home Categories About

Warning! Use a VPN When Downloading Torrents!
Your IP Address is . Location is
Avoid LAWSUITS and FINES! Hide your IP ADDRESS with a VPN!
We strongly recommend using Trust.Zone VPN to anonymize your torrenting. It's FREE!
Get VPN Now for FREE!

Faking It 2014 S03E10 Up in Flames 1080p WEB-DL AAC2 0 H264-NTb[rartv]

DOWNLOAD TORRENT

Posted on May 21, 2016 in Series » Misc , verified torrent

Size: 839.07 MB , Seeds: 2 , Peers: 0 ( Updated November 6, 2016 - Refresh )

* Download via Magnet Link

Loading...

Scrape History ( seeds + peers )

Internal Files

Faking.It.2014.S03E10.Up.in.Flames.1080p.WEB-DL.AAC2.0.H264-NTb[rarbg]
Faking.It.2014.S03E10.Up.in.Flames.1080p.WEB-DL.AAC2.0.H.264-NTb.mkv   838.83 MB
Faking.It.2014.S03E10.Up.in.Flames.1080p.WEB-DL.AAC2.0.H.264-NTb.srt   66.55 KB
RARBG.com.txt   34 Byte

Hash Code

d0a9e14e7ae986c5d9efaf7906b62addc07d6751

Description



https://rarbg.to

Faking.It.2014.S03E10.Up.in.Flames.1080p.WEB-DL.AAC2.0.H264-NTb[rartv]



SCREENSHOT

Screens :



SCREENSHOT

Mediainfo :



Video

ID : 1

Format : AVC

Format/Info : Advanced Video Codec

Format profile : [email protected]

Format settings, CABAC : Yes

Format settings, ReFrames : 4 frames

Codec ID : V_MPEG4/ISO/AVC

Duration : 22mn 8s

Bit rate : 5 137 Kbps

Width : 1 916 pixels

Height : 1 076 pixels

Display aspect ratio : 16:9

Frame rate mode : Constant

Frame rate : 23.976 (24000/1001) fps

Color space : YUV

Chroma subsampling : 4:2:0

Bit depth : 8 bits

Scan type : Progressive

Bits/(Pixel*Frame) : 0.104

Stream size : 814 MiB (97%)

Language : English

Default : Yes

Forced : No

Color range : Limited

Color primaries : BT.709

Transfer characteristics : BT.709

Matrix coefficients : BT.709



Audio

ID : 2

Format : AAC

Format/Info : Advanced Audio Codec

Format profile : LC

Codec ID : A_AAC

Duration : 22mn 8s

Bit rate : 156 Kbps

Channel(s) : 2 channels

Channel positions : Front: L R

Sampling rate : 48.0 KHz

Frame rate : 46.875 fps (1024 spf)

Compression mode : Lossy

Stream size : 24.7 MiB (3%)

Language : English

Default : Yes

Forced : No



Text

ID : 3

Format : UTF-8

Codec ID : S_TEXT/UTF8

Codec ID/Info : UTF-8 Plain Text

Duration : 21mn 23s

Bit rate : 208 bps

Count of elements : 986

Stream size : 32.7 KiB (0%)

Language : English

Default : No

Forced : No


Torrent location

http://kat.cr/faking-it-2014-s03e10-up-in-flames-1080p-web-dl-aac2-0-h264-ntb-rartv-t12639123.html

Trackers

Refresh Leechers : Updated November 6, 2016

1. udp://tracker.opentrackr.org:1337/announce

2. udp://tracker.coppersurfer.tk:6969/announce

3. udp://tracker.openbittorrent.com:80/announce

4. udp://glotorrents.pw:6969/announce

5. udp://tracker.publicbt.com:80/announce

6. http://tracker.trackerfix.com/announce

7. udp://9.rarbg.me:2710/announce

8. udp://9.rarbg.to:2710/announce

Comments

You must log in to add a comment.

Embed Code

Sharing Widget

Top Series ( auto generated report )

FILENAME SIZE SEEDS PEERS ADDED UPD
[i] Arrow.S05E17.HDTV.x264-LOL[ettv] 256.5 MB 7481 1240 2 days 8 hours
[i] Greys.Anatomy.S13E17.HDTV.x264-LOL[ettv] 248.5 MB 5108 876 1 day 23 hours
[i] Blindspot.S02E16.HDTV.x264-LOL[ettv] 232.5 MB 3742 650 2 days 1 day
[i] Designated.Survivor.S01E13.HDTV.x264-LOL[ettv] 208.5 MB 3352 429 2 days 1 day
[i] Legion.S01E07.WEB-DL.XviD-FUM[ettv] 398.5 MB 3187 946 2 days 1 day
[i] The.Blacklist.Redemption.S01E05.HDTV.x264-KILLERS[ettv] 248.5 MB 3184 409 1 day 20 hours
[i] The.100.S04E07.WEB-DL.XviD-FUM[ettv] 350.5 MB 3059 916 2 days 1 day
[i] Marvels.Iron.Fist.S01E01.WEB.X264-DEFLATE[ettv] 468.5 MB 3002 346 1 week 2 days
[i] Legion.S01E06.WEB-DL.XviD-FUM[ettv] 428.5 MB 2482 201 1 week 3 days
[i] Marvels.Iron.Fist.S01E03.WEB.X264-DEFLATE[ettv] 448.5 MB 2402 198 1 week 2 days
advertising ( remove )