Fire and Ice (1983)[BRRip 1080p x264 by alE13 AC3/DTS][Napisy PL/Eng][Eng]

DOWNLOAD TORRENT

Posted by alE13 •1549 on August 21, 2016 in Movies » Animation , verified torrent

Size: 8.09 GB , Seeds: 1 , Peers: 0 ( Updated October 24, 2016 - Refresh )

* Download via Magnet Link * To download files you need a Bittorrent Client ,

Scrape History ( seeds + peers )

Internal Files

Fire and Ice (1983)-alE13
2.jpg   280.4 KB
Nostalgie.jpg   138.36 KB
Torrent downloaded from alE13 torrents at BTScene.org.txt   120 Byte
Torrent downloaded from demonoid.pw.txt   46 Byte
Torrent downloaded from - www.aletorrenty.pl   43 Byte
Fire and Ice (1983)-alE13.rar   16.83 KB
Fire and Ice (1983)-alE13.mkv   8.02 GB
sample.mkv   73.93 MB
poster.jpg   254.49 KB
txt.jpg   169.92 KB

Hash Code

d46d5b90ca3ad3c9ed966691bd9ac42be1af7d93

Description

SCREENSHOT

http://www.filmweb.pl/film/Ogie%C5%84+i+l%C3%B3d-1983-34718
http://www.imdb.com/title/tt0085542/

reżyseria: Ralph Bakshi
scenariusz: Ralph Bakshi,Gerry Conway,Roy Thomas
gatunek: Animacja,Fantasy,Przygodowy
produkcja: USA
premiera: 25-03-1983
muzyka: William Kraft,Hemi Tabachnik
zdjęcia: Francis Grumman
czas: 1h 21mn

opis:

In this animated tale, a tiny village is destroyed by a surging glacier, which serves as the deadly
domain for the evil Ice Lord, Nekron. The only survivor is a young warrior, Larn, who vows to avenge
this act of destruction. The evil continues, however, as Nekron's palace of ice heads straight towards
Fire Keep, the great fortress ruled by the good King Jarol. When Jarol's beautiful daughter, Teegra,
is abducted by Nekron's sub-human ape-like creatures, Larn begins a daring search for her. What results
is a tense battle between good and evil, surrounded by the mystical elements of the ancient past.

Nekron, zły Władca Lodu używa magicznych mocy, aby zdobyć Fortecę Ognia, dowodzoną przez dobrego
króla Jarola. Nie mogąc pokonać króla w otwartej walce, rozkazuje porwać jego córkę Teegrę. Na jej
ratunek wyrusza dzielny wojownik Larn.

SCREENSHOT
SCREENSHOT
SCREENSHOT
SCREENSHOT

obsada:

Randy Norton, Cynthia Leake, Steve Sandor (voice)

dane techniczne:
Fire and Ice (1983)-alE13.mkv
Format : Matroska
Format version : Version 4 / Version 2
File size : 8.02 GiB
Duration : 1h 21mn
Overall bit rate mode : Variable
Overall bit rate : 14.1 Mbps
Movie name : Fire and Ice (1983)-alE13
Encoded date : UTC 2016-08-21 05:08:04
Writing application : mkvmerge v8.1.0 ('Psychedelic Postcard') 64bit
Writing library : libebml v1.3.1 + libmatroska v1.4.2
Cover : Yes
Attachments : cover.jpg

Video
ID : 1
Format : AVC
Format/Info : Advanced Video Codec
Format profile : [email protected]
Format settings, CABAC : Yes
Format settings, ReFrames : 3 frames
Codec ID : V_MPEG4/ISO/AVC
Duration : 1h 21mn
Bit rate mode : Variable
Bit rate : 11.3 Mbps
Maximum bit rate : 20.0 Mbps
Width : 1 920 pixels
Height : 1 080 pixels
Display aspect ratio : 16:9
Frame rate mode : Constant
Frame rate : 23.976 (24000/1001) fps
Standard : PAL
Color space : YUV
Chroma subsampling : 4:2:0
Bit depth : 8 bits
Scan type : Progressive
Bits/(Pixel*Frame) : 0.226
Stream size : 6.42 GiB (80%)
Title : Fire and Ice (1983)-alE13
Default : Yes
Forced : No
Color range : Limited
Color primaries : BT.709
Transfer characteristics : BT.709
Matrix coefficients : BT.709

Audio #1
ID : 2
Format : DTS
Format/Info : Digital Theater Systems
Format profile : MA / Core
Mode : 16
Format settings, Endianness : Big
Codec ID : A_DTS
Duration : 1h 21mn
Bit rate mode : Variable / Constant
Bit rate : 2 344 Kbps / 1 509 Kbps
Channel(s) : 8 channels / 6 channels
Channel positions : Front: L C R, Side: L R, Back: L R, LFE / Front: L C R, Side: L R, LFE
Sampling rate : 48.0 KHz
Frame rate : 93.750 fps (512 spf)
Bit depth : 16 bits
Compression mode : Lossless / Lossy
Stream size : 1.34 GiB (17%)
Title : Fire and Ice (1983)-alE13_DTS
Language : English
Default : No
Forced : No

Audio #2
ID : 3
Format : AC-3
Format/Info : Audio Coding 3
Mode extension : CM (complete main)
Format settings, Endianness : Big
Codec ID : A_AC3
Duration : 1h 21mn
Bit rate mode : Constant
Bit rate : 448 Kbps
Channel(s) : 6 channels
Channel positions : Front: L C R, Side: L R, LFE
Sampling rate : 48.0 KHz
Frame rate : 31.250 fps (1536 spf)
Compression mode : Lossy
Stream size : 262 MiB (3%)
Title : Fire and Ice (1983)-alE13
Language : English
Default : Yes
Forced : No

Text #1
ID : 4
Format : UTF-8
Codec ID : S_TEXT/UTF8
Codec ID/Info : UTF-8 Plain Text
Duration : 1h 14mn
Bit rate : 16 bps
Count of elements : 269
Stream size : 9.25 KiB (0%)
Title : Fire and Ice (1983)-alE13
Language : English
Default : No
Forced : No

Text #2
ID : 5
Format : UTF-8
Codec ID : S_TEXT/UTF8
Codec ID/Info : UTF-8 Plain Text
Duration : 1h 17mn
Bit rate : 17 bps
Count of elements : 282
Stream size : 9.83 KiB (0%)
Title : Fire and Ice (1983)-alE13
Language : Polish
Default : Yes
Forced : No

Menu
00:00:00.000 : en:(01)00:00:00:000
00:02:31.776 : en:(02)00:02:31:776
00:03:53.358 : en:(03)00:03:53:358
00:07:47.133 : en:(04)00:07:47:133
00:12:41.135 : en:(05)00:12:41:135
00:17:25.794 : en:(06)00:17:25:794
00:21:39.339 : en:(07)00:21:39:339
00:25:33.949 : en:(08)00:25:33:949
00:26:57.157 : en:(09)00:26:57:157
00:30:09.140 : en:(10)00:30:09:140
00:34:17.847 : en:(11)00:34:17:847
00:36:27.018 : en:(12)00:36:27:018
00:39:28.032 : en:(13)00:39:28:032
00:44:22.868 : en:(14)00:44:22:868
00:48:29.281 : en:(15)00:48:29:281
00:50:44.958 : en:(16)00:50:44:958
00:53:04.139 : en:(17)00:53:04:139
00:55:43.923 : en:(18)00:55:43:923
01:00:37.091 : en:(19)01:00:37:091
01:04:38.708 : en:(20)01:04:38:708
01:08:09.835 : en:(21)01:08:09:835
01:13:04.129 : en:(22)01:13:04:129
01:16:37.175 : en:(23)01:16:37:175
01:18:05.680 : en:(24)01:18:05:680
01:21:37.809 : en:(25)01:21:37:809

Trackers

Refresh Leechers : Updated October 24, 2016

1. http://tracker.aletorrenty.pl:2710/announce

2. http://tracker.filetracker.pl:8089/announce

3. http://tracker.torrenty.org:6969/announce

4. http://tracker.ex.ua/announce

5. udp://inferno.demonoid.ooo:3392/announce

6. http://torrent.gresille.org/announce.php

7. udp://tracker.aletorrenty.pl:2710/announce

8. udp://tracker.openbittorrent.com:80/announce

9. udp://tracker.leechers-paradise.org:6969/announce

10. udp://torrent.gresille.org:80/announce

11. udp://tracker.opentrackr.org:1337/announce

12. udp://9.rarbg.me:2710/announce

13. udp://tracker.coppersurfer.tk:6969/announce

14. udp://www.eddie4.nl:6969/announce

15. udp://tracker.coppersurfer.tk:6969

16. udp://tracker.leechers-paradise.org:6969

17. udp://exodus.desync.com:6969

18. udp://tracker.prq.to/announce

19. udp://tracker.openbittorrent.com:80/announce

20. udp://11.rarbg.com/announce

21. udp://tracker.publicbt.com:80/announce

22. udp://tracker.token.ro:80/announce

23. udp://tracker.istole.it:80/announce

24. udp://open.demonii.com:1337/announce

25. udp://open.demonii.com:1337

26. udp://open.demonii.com:1337/announce

Comments

You must log in to add a comment.

Embed Code

Sharing Widget

Related torrents

FILENAME SIZE SEEDS PEERS ADDED UPD
[i] Chicago.Fire.S05E22.HDTV.x264-KILLERS[ettv] 366.39 MB 494 69 1 week 5 days
[i] Chicago.Fire.S05E22.HDTV.x264-KILLERS[eztv].mkv 366.57 MB 388 48 1 week 5 days
[i] RuPauls.Drag.Race.S09E09.Your.Pilots.On.Fire.HDTV.x264-4yEo 399.82 MB 353 22 1 week 2 days
[i] Chicago.Fire.S05E21.HDTV.x264-KILLERS[ettv] 294.5 MB 335 46 2 weeks 4 days
[i] Chicago.Fire.S05E20.HDTV.x264-KILLERS[ettv] 255.92 MB 261 32 3 weeks 1 week
[i] Chicago.Fire.S05E19.HDTV.x264-KILLERS[ettv] 302.5 MB 249 35 1 month 2 weeks
[i] Harry Potter and the Goblet of Fire 1080p Bluray x264-KATRG 1.65 GB 223 43 1 year 11 months
[i] Chicago.Fire.S05E18.HDTV.x264-KILLERS[ettv] 269.53 MB 205 22 1 month 2 weeks
[i] Chicago.Fire.S05E19.HDTV.x264-KILLERS[eztv].mkv 301.91 MB 205 30 1 month 2 weeks
[i] Chicago.Fire.S05E20.HDTV.x264-KILLERS[eztv].mkv 256.04 MB 205 20 3 weeks 1 week

Top Movies ( auto generated report )

FILENAME SIZE SEEDS PEERS ADDED UPD
[i] A Cure for Wellness (2016) [720p] [YTS AG] 1.07 GB 4155 3189 1 day 14 hours
[i] T2 Trainspotting (2017) [720p] [YTS AG] 860.23 MB 3880 2207 2 days 1 day
[i] Colossal.2016.1080p.WEB-DL.AAC2.0.H264-FGT 3.5 GB 2946 1752 2 days 1 day
[i] Black.Butterfly.2017.1080p.WEB-DL.DD5.1.H264-FGT 3.22 GB 2391 1582 2 days 1 day
[i] McLaren (2016) [1080p] [YTS AG] 1.43 GB 1389 656 1 day 14 hours
[i] McLaren (2016) [720p] [YTS AG] 689.56 MB 1339 677 1 day 14 hours
[i] The Ticket (2016) [720p] [YTS AG] 728.18 MB 1202 743 1 day 14 hours
[i] The Ticket (2016) [1080p] [YTS AG] 1.51 GB 1036 668 1 day 14 hours
[i] Molot (2016) [720p] [YTS AG] 818.17 MB 625 254 3 days 12 hours
[i] Sachin 2017 Hindi (1CD) CAMRip x264 AAC - Hon3y 704.3 MB 961 693 1 day 23 hours