Ghostbusters.2016.TS.XviD-BiGDADDYVAiN

DOWNLOAD TORRENT

Posted on July 22, 2016 in Movies » Comedy , verified torrent

Size: 1.12 GB , Seeds: 825 , Peers: 118 ( Updated October 29, 2016 - Refresh )

Quality: Audio 6/10 - Video 5/10 ( defined by users )

* Download via Magnet Link * To download files you need a Bittorrent Client ,

Scrape History ( seeds + peers )

Internal Files

Ghostbusters.2016.TS.XviD-BiGDADDYVAiN
Ghostbusters.2016.TS.XviD-BiGDADDYVAiN.avi   1.1 GB
Torrent Downloaded From peertorrent.com.txt   338 Byte
VAiN.nfo   3.6 KB
sample.avi   15.59 MB

Hash Code

1745c7f447442460f4a89ce11a0dd9822af662b0

Description

SCREENSHOT





http://www.imdb.com/title/tt1289401/





Following a ghost invasion of Manhattan, paranormal enthusiasts Erin Gilbert and Abby Yates, nuclear engineer Jillian Holtzmann, and subway worker Patty Tolan band together to stop the otherworldly threat.



Director: Paul Feig

Writers: Katie Dippold, Paul Feig

Stars: Melissa McCarthy, Kristen Wiig, Kate McKinnon

Genres: Comedy | Fantasy | Sci-Fi

Country: USA

Language: English





Basic Information

Format : AVI

Format/Info : Audio Video Interleave

File size : 1.10 GiB

Duration : 1 h 55 min

Overall bit rate : 1 366 kb/s

Writing application : VirtualDubMod 1.5.10.2 (build 2540/release)

Writing library : VirtualDubMod build 2540/release



Video

ID : 0

Format : MPEG-4 Visual

Format profile : Advanced [email protected]/* */

Format settings, BVOP : 2

Format settings, QPel : No

Format settings, GMC : No warppoints

Format settings, Matrix : Default (H.263)

Muxing mode : Packed bitstream

Codec ID : XVID

Codec ID/Hint : XviD

Duration : 1 h 55 min

Bit rate : 1 163 kb/s

Width : 736 pixels

Height : 352 pixels

Display aspect ratio : 2.091

Frame rate : 29.970 (30000/1001) FPS

Color space : YUV

Chroma subsampling : 4:2:0

Bit depth : 8 bits

Scan type : Progressive

Compression mode : Lossy

Bits/(Pixel*Frame) : 0.150

Stream size : 960 MiB (85%)

Writing library : XviD 67



Audio

ID : 1

Format : MPEG Audio

Format version : Version 1

Format profile : Layer 3

Mode : Joint stereo

Mode extension : MS Stereo

Codec ID : 55

Codec ID/Hint : MP3

Duration : 1 h 55 min

Bit rate mode : Constant

Bit rate : 192 kb/s

Channel(s) : 2 channels

Sampling rate : 48.0 kHz

Compression mode : Lossy

Stream size : 159 MiB (14%)

Alignment : Aligned on interleaves

Interleave, duration : 33 ms (1.00 video frame)

Interleave, preload duratio : 504 ms





SOURCE......: ViDEO...DADDY [TY DADDY] 1st to bring this to the net...

............: AUDiO...DADDY

SAMPLE......: Yippers

ADDED NOTE..: Who you gonna call? Poo Shiners!!! :wink:

Looks like we have a call to sort out yet another turd... source used was dark, turd like and over denoised. perspective looks off however, pulling it in would lose too much vid so left alone.

as usual, took our poo shine, and polished this up. got some dark spots, first 2 minutes are whacked... audio is pretty good...



DISCLAiMER!!! no encoders were hurt durning the encode/re-ecode of this video... maybe some feelings but just giving you all the love your deserve



ps hear there is a bigger better copy coming out... we will wait by the phone till the shiners are called again... LOL!!!!!!





SCREENSHOT SCREENSHOT SCREENSHOT SCREENSHOT SCREENSHOT SCREENSHOT SCREENSHOT SCREENSHOT

Trackers

Refresh Leechers : Updated October 29, 2016

1. udp://tracker.coppersurfer.tk:6969/announce

2. udp://thetracker.org:80/announce

3. udp://tracker.coppersurfer.tk:6969

4. udp://tracker.leechers-paradise.org:6969/announce

5. udp://eddie4.nl:6969/announce

6. udp://zer0day.ch:1337/announce

7. udp://tracker.sktorrent.net:6969/announce

8. udp://9.rarbg.me:2710/announce

9. udp://9.rarbg.to:2710/announce

10. udp://torrent.gresille.org:80/announce

11. udp://tracker.aletorrenty.pl:2710/announce

12. udp://tracker.piratepublic.com:1337/announce

13. udp://tracker.opentrackr.org:1337/announce

14. udp://explodie.org:6969/announce

15. udp://p4p.arenabg.ch:1337/announce

Comments

You must log in to add a comment.

tushar •167 2016-07-23 18:52:06

AUDIO: 6 - VIDEO: 5

Embed Code

Sharing Widget

Related torrents

FILENAME SIZE SEEDS PEERS ADDED UPD
[i] Ghostbusters.2016.EXTENDED.BRRip.XViD.AC3-ETRG 1.43 GB 372 137 10 months 8 months
[i] Ghostbusters.2016.EXTENDED.BRRip.XviD.AC3-EVO[PRiME] 1.41 GB 45 7 10 months 8 months
[i] Ghostbusters.2016.HDRip.XviD.AC3-EVO[PRiME] 1.43 GB 15 7 10 months 10 months
[i] Ghostbusters 2016 HDRip XviD AC3-EVO 1.41 GB 15 1 10 months 9 months
[i] Ghostbusters 2016 iTALiAN BDRiP EXTENDED XviD-HDi[MT]
posted by Survivalofmisa in Movies - Comedy
2.1 GB 14 7 6 months 3 weeks
[i] Ghostbusters.2016.TS.XviD.BiGDADDYVAiN 1.12 GB 11 4 1 year 8 months
[i] Ghostbusters 2016 EXTENDED iTALiAN BRRip XviD BLUWORLD
posted by SPEEDY45 in Movies - Action
2.05 GB 9 3 8 months 2 months
[i] Ghostbusters.2016.EXTENDED.BRRip.XviD.AC3-EVO 1.4 GB 8 6 10 months 8 months
[i] Ghostbusters.2016.TS.XviD-BiGDADDYVAiN[PRiME] 1.12 GB 8 3 1 year 1 hour
[i] Ghostbusters.2016.TS.XviD-BiGDADDYVAiN [WeLoveTorrents] 1.12 GB 6 4 1 year 8 months

Top Movies ( auto generated report )

FILENAME SIZE SEEDS PEERS ADDED UPD
[i] Going in Style (2017) [1080p] [YTS AG] 1.47 GB 4379 1109 5 days 18 hours
[i] Going in Style (2017) [720p] [YTS AG] 713.31 MB 6134 2459 5 days 1 day
[i] The Circle (2017) [1080p] [YTS AG] 1.68 GB 4522 2933 4 days 3 days
[i] The Circle (2017) [720p] [YTS AG] 812.53 MB 4292 3059 4 days 3 days
[i] Colossal (2016) [720p] [YTS AG] 797.03 MB 1551 450 6 days 5 hours
[i] S W A T - Under Siege (2017) [720p] [YTS AG] 665.25 MB 2586 1468 5 days 4 days
[i] Colossal (2016) [1080p] [YTS AG] 1.66 GB 1348 411 6 days 5 hours
[i] Sleight (2016) [720p] [YTS AG] 658.87 MB 1278 697 6 days 5 hours
[i] S W A T - Under Siege (2017) [1080p] [YTS AG] 1.36 GB 1817 972 5 days 4 days
[i] The Girl from the Song (2017) [1080p] [YTS AG] 1.56 GB 1472 891 4 days 3 days