Bit Torrent Scene a public file sharing platform Home Categories Blog About

advertising ( remove )

Honey 3: Dare to Dance *2016*[720p.AC3.BDRip.x264-LEON 345]

DOWNLOAD TORRENT

Posted on August 28, 2016 in Movies » Family , verified torrent

Size: 2.31 GB , Seeds: 12 , Peers: 31 ( Updated August 28, 2016 )

* Download via Magnet Link * To download files you need a Bittorrent Client ,

advertising ( remove )

External Info

Trailer | Wikipedia | Other Info

Internal Files

Honey3_(2016)BDRip.720p.Leon345
Honey3_(2016).BDRip.720p.Leon345.mkv   2.3 GB
Honey3.jpg   166.72 KB
Torrent downloaded from agusiq-torrents.pl upload Leon345.txt   3.94 KB

Hash Code

6f33d75d03431daba0052128b9b40e537cf07811

Description

Honey 3 - Honey 3: Dare to Dance *2016* 720p.BDRip.AC3 2.0.Leon345

===================================================



SCREENSHOT



Produkcja: USA

Gatunek: Familijny | Muzyczny

Czas trwania: 96 min.

Premiera: 15.08.2016 - Świat

Reżyseria: Bille Woodruff

Scenariusz: Catherine Cyran



https://www.imdb.com/title/tt4677938/



Utalentowana Melea Martin, ograniczana przez szkołe postanawia wykorzytać swój talent i zostać tancerką.



Obsada:



Kenny Wormald - Erik Wildwood

Bobby Lockwood - Laser

Cassie Ventura - Melea Martin

Dena Kaplan - Nadine

Sibongile Mlambo - Ishani Magona (as Sibo Mlambo)

Peter Butler - Uncle Simon

Adrian Galley - Mr. Sammy Wright

Sivuyile Ngesi - DJ Zubair Khumalo



General



Format : Matroska

Format version : Version 2

File size : 2.30 GiB

Duration : 1h 36mn

Overall bit rate : 3 426 Kbps

Movie name : Honey3_(2016).BDRip.720p.Leon345

Encoded date : UTC 2016-08-28 08:59:04

Writing application : mkvmerge v5.7.0 ('The Whirlwind') built on Jul 8 2012 20:08:51

Writing library : libebml v1.2.3 + libmatroska v1.3.0



Video

ID : 1

Format : AVC

Format/Info : Advanced Video Codec

Format profile : [email protected]/* */

Format settings, CABAC : Yes

Format settings, ReFrames : 6 frames

Codec ID : V_MPEG4/ISO/AVC

Duration : 1h 36mn

Bit rate : 3 149 Kbps

Width : 1 280 pixels

Height : 720 pixels

Display aspect ratio : 16:9

Frame rate mode : Constant

Frame rate : 23.976 (24000/1001) fps

Color space : YUV

Chroma subsampling : 4:2:0

Bit depth : 8 bits

Scan type : Progressive

Bits/(Pixel*Frame) : 0.143

Stream size : 2.09 GiB (91%)

Writing library : x264

Encoding settings : cabac=1 / [****]6 / deblock=1:-1:-1 / rc=2pass

Default : Yes

Forced : No



Audio #1

ID : 2

Format : AC-3

Format/Info : Audio Coding 3

Mode extension : CM (complete main)

Format settings, Endianness : Big

Codec ID : A_AC3

Duration : 1h 36mn

Bit rate mode : Constant

Bit rate : 128 Kbps

Channel(s) : 2 channels

Channel positions : Front: L R

Sampling rate : 48.0 KHz

Frame rate : 31.250 fps (1536 spf)

Compression mode : Lossy

Stream size : 88.1 MiB (4%)

Language : Polish

Default : Yes

Forced : No



Audio #2

ID : 3

Format : AC-3

Format/Info : Audio Coding 3

Mode extension : CM (complete main)

Format settings, Endianness : Big

Codec ID : A_AC3

Duration : 1h 36mn

Bit rate mode : Constant

Bit rate : 128 Kbps

Channel(s) : 2 channels

Channel positions : Front: L R

Sampling rate : 48.0 KHz

Compression mode : Lossy

Stream size : 88.1 MiB (4%)

Title : AC3 2.0 ENG

Language : English

Default : No

Forced : No



Text #1

ID : 4

Format : UTF-8

Codec ID : S_TEXT/UTF8

Codec ID/Info : UTF-8 Plain Text

Title : napisy PL OCR z Bluray Leon345

Language : Polish

Default : No

Forced : No



Text #2

ID : 5

Format : UTF-8

Codec ID : S_TEXT/UTF8

Codec ID/Info : UTF-8 Plain Text

Title : napisy ENG

Language : English

Default : No

Forced : No



Text #3

ID : 6

Format : PGS

Muxing mode : zlib

Codec ID : S_HDMV/PGS

Codec ID/Info : Picture based subtitle format used on BDs/HD-DVDs

Title : Bluray orginal PL

Language : Polish

Default : No

Forced : No



Text #4

ID : 7

Format : PGS

Muxing mode : zlib

Codec ID : S_HDMV/PGS

Codec ID/Info : Picture based subtitle format used on BDs/HD-DVDs

Title : Bluray orginal ENG

Language : English

Default : No

Forced : No



A/V- BD CEE

Torrent location

https://peertorrent.com/torrent/5134749/Honey+3%3A+Dare+to+Dance+%2A2016%2A%5B720p.AC3.BDRip.x264-LEON+345%5D.html

Scrape History ( seeds + peers )

Trackers

Refresh Leechers : Updated August 28, 2016

1. https://agusiq-torrents.pl:6969/announce

2. https://pow7.com:80/announce

3. https://pow7.com/announce

4. https://tracker.filetracker.pl:8089/announce

5. https://tracker.aletorrenty.pl:2710/announce

6. https://tracker.tfile.me/announce

7. https://retracker.omsk.ru:2710/announce

8. https://mgtracker.org:2710/announce

9. udp://tracker.leechers-paradise.org:6969/announce

Comments

You must log in to add a comment.

Embed Code

Sharing Widget

Related torrents

FILENAME SIZE SEEDS PEERS ADDED UPD
[i] Honey 3: Dare to Dance 2016 720p BRRip 750 MB - iExTV 751.3 MB 446 432 22 hours 2 hours
[i] Honey.3.Dare.to.Dance.2016.1080p.BluRay.x264-ROVERS[PRiME] 7.74 GB 17 49 1 day 1 hour
[i] Honey 3: Dare to Dance (2016) 720p BluRay - 850MB - ShAaNiG 849.3 MB 15 47 20 hours 20 hours
[i] Honey 3 Dare to Dance 2016 1080p BluRay x264-ROVERS
posted by hotpena in Movies - Drama
7.65 GB 1 0 17 hours 17 hours
[i] Honey 3 Dare to Dance 2016 720p BluRay x264-ROVERS 4.37 GB 0 4 18 hours 18 hours

Top Movies ( auto generated report )

FILENAME SIZE SEEDS PEERS ADDED UPD
[i] Now.You.See.Me.2.2016.1080p.BluRay.x264.AC3-JYK 2.93 GB 8132 5852 1 day 21 hours
[i] Blood.Father.2016.HDRip.XViD-ETRG 711.3 MB 7851 3968 2 days 12 hours
[i] The Conjuring 2 (2016) 720p BluRay - 1.2GB - ShAaNiG 1.2 GB 7125 5490 1 day 13 hours
[i] Jason.Bourne.720p.HDTC.X264-NUKU 2.49 GB 8020 6984 2 hours 2 min
[i] Jason Bourne (2016) 720p HDTC 850MB - MkvCage 904.3 MB 4312 2138 1 day 9 hours
[i] Blood.Father.2016.720p.WEBRip.x264.AAC-ETRG 662.3 MB 4159 2580 1 day 3 hours
[i] War Dogs 2016 HD-TS x264-CPG 2.1 GB 3948 3105 1 day 2 hours
[i] The.Conjuring.2.2016.720p.BRRip.x264.AAC-ETRG 1004.3 MB 3885 3190 1 day 3 hours
[i] Our.Kind.of.Traitor.2016.HDRip.XviD.AC3-EVO 1.41 GB 3922 4367 2 hours 2 min
[i] Genius.2016.HDRip.XviD.AC3-EVO 1.39 GB 2250 1125 4 days 3 days
advertising ( remove )