Bit Torrent Scene a public file sharing platform Home Categories Blog About

advertising ( remove )

Ice.Age.Collision.Course.2016.New.HDTS.XVID.AC3.HQ.Hive-CM8

DOWNLOAD TORRENT

Posted on August 7, 2016 in Movies » Animation , verified torrent

Size: 1.4 GB , Seeds: 1226 , Peers: 690 ( Updated August 13, 2016 - Refresh )

* Download via Magnet Link * To download files you need a Bittorrent Client ,

advertising ( remove )

External Info

Trailer | Wikipedia | Other Info

Internal Files

Ice.Age.Collision.Course.2016.New.HDTS.XVID.AC3.HQ.Hive-CM8
Ice.Age.Collision.Course.2016.New.HDTS.XVID.AC3.HQ.Hive-CM8.avi   1.38 GB
Ice.Age.Collision.Course.2016.New.HDTS.XVID.AC3.HQ.Hive-CM8.nfo   4.92 KB
Torrent Downloaded From peertorrent.com.txt   338 Byte
sample.avi   21.14 MB

Hash Code

7e659affcbfed3cc4ab98afb28a2e1270446adc6

Description

SCREENSHOT





https://www.imdb.com/title/tt3416828/





Manny, Diego, and Sid join up with Buck to fend off a meteor strike that would destroy the world.



Directors: Mike Thurmeier, Galen T. Chu

Writers: Michael J. Wilson (screenplay), Michael Berg (screenplay)

Stars: Ray Romano, Denis Leary, John Leguizamo

Genres: Animation | Adventure | Comedy | Family | Sci-Fi

Country: USA

Language: English





Ice.Age.Collision.Course.2016.New.HDTS.XVID.AC3.HQ.Hive-CM8



Thx Hive



CM8 Doing It Right The First Time



Sources:



Video: New Russian HDCAM

Audio: English Digital Line Audio (thx cpg)

thx



Notes:

waited for the better russian video, quality is amazing, nearly screener quality

no shaking,no focus issues, dark scenes are perfect,as perfect as a cam can be.



Encode:

as mentioned quality was already perfect only fixed brightness,contrast and rgb



Syncing Audio took me 12h wasnt funny at all to get it lipsync, after 6h i nearly gave up but i pushed through for you guys

additional 6h and all is lipsync.



the russian video was done with variable bitrate, it was a pita since framerate was moving around from 23-30 frame, plz guys use constant bitrate thx



well it took some work but the result is perfect

wont get better than this till retail

enjoy



ah before i forget have new mail adress and i need a new team.

Looking for guys who can get quality stuff, full cams hd prefered or dvd-r and ofc dvd-scr, english line audio or at least a good hqmic.

you have what it takes msg me under [email protected]/* */

the old addies are gone so only take the new one

thx



Video: 720x304 @bitrate 2000 2pass

Audio: English Digital Line Audio AC3 2.0

Sample: yes included





https://www.imdb.com/title/tt3416828/



General

Complete name : Ice.Age.Collision.Course.2016.New.HDTS.XVID.AC3.HQ.Hive-CM8.avi

Format : AVI

Format/Info : Audio Video Interleave

File size : 1.38 GiB

Duration : 1h 27mn

Overall bit rate : 2 266 Kbps

Writing application : Nandub v1.0rc2

Writing library : Nandub build 1853/release



Video

ID : 0

Format : MPEG-4 Visual

Format profile : Advanced [email protected]/* */

Format settings, BVOP : 2

Format settings, QPel : Yes

Format settings, GMC : No warppoints

Format settings, Matrix : Default (H.263)

Muxing mode : Packed bitstream

Codec ID : XVID

Codec ID/Hint : XviD

Duration : 1h 27mn

Bit rate : 2 000 Kbps

Width : 720 pixels

Height : 304 pixels

Display aspect ratio : 2.35:1

Frame rate : 25.000 fps

Color space : YUV

Chroma subsampling : 4:2:0

Bit depth : 8 bits

Scan type : Progressive

Compression mode : Lossy

Bits/(Pixel*Frame) : 0.365

Stream size : 1.22 GiB (88%)

Writing library : XviD 1.2.1 (UTC 2008-12-04)



Audio

ID : 1

Format : AC-3

Format/Info : Audio Coding 3

Mode extension : CM (complete main)

Format settings, Endianness : Big

Codec ID : 2000

Duration : 1h 27mn

Bit rate mode : Constant

Bit rate : 256 Kbps

Channel(s) : 2 channels

Channel positions : Front: L R

Sampling rate : 48.0 KHz

Bit depth : 16 bits

Compression mode : Lossy

Stream size : 160 MiB (11%)

Alignment : Split accross interleaves

Interleave, duration : 40 ms (1.00 video frame)

Interleave, preload duration : 500 ms





SCREENSHOT SCREENSHOT SCREENSHOT SCREENSHOT SCREENSHOT SCREENSHOT SCREENSHOT SCREENSHOT SCREENSHOT SCREENSHOT

Torrent location

https://peertorrent.com/torrent/5092998/Ice.Age.Collision.Course.2016.New.HDTS.XVID.AC3.HQ.Hive-CM8.html

Scrape History ( seeds + peers )

Trackers

Refresh Leechers : Updated August 13, 2016

1. udp://tracker.coppersurfer.tk:6969/announce

2. udp://thetracker.org:80/announce

3. udp://tracker.coppersurfer.tk:6969

4. udp://tracker.leechers-paradise.org:6969/announce

5. udp://eddie4.nl:6969/announce

6. udp://zer0day.ch:1337/announce

7. udp://tracker.sktorrent.net:6969/announce

8. udp://9.rarbg.me:2710/announce

9. udp://9.rarbg.to:2710/announce

10. udp://torrent.gresille.org:80/announce

11. udp://tracker.aletorrenty.pl:2710/announce

12. udp://tracker.piratepublic.com:1337/announce

13. udp://tracker.opentrackr.org:1337/announce

14. udp://explodie.org:6969/announce

15. udp://p4p.arenabg.ch:1337/announce

Comments

You must log in to add a comment.

Embed Code

Sharing Widget

Related torrents

FILENAME SIZE SEEDS PEERS ADDED UPD
[i] Ice Age Collision Course 2016 HD-TS x264-CPG 1.3 GB 1633 713 3 weeks 1 week
[i] Ice Age Collision Course 2016 READNFO 720p HDRIP X264 AC3 TiTAN.[PRiME] 2.41 GB 1476 1034 2 days 1 day
[i] Ice.Age.Collision.Course.2016.READNFO.HDRip.XviD.AC3-EVO 1.4 GB 1125 765 2 days 1 day
[i] Ice Age: Collision Course (2016) 720p HDRiP - 850MB - ShAaNiG 851.3 MB 978 1262 1 day 1 hour
[i]
[i]
Ice Age Collision Course,2016 English CAMRip x264 797MB By TeriKasam mkv
posted by tash54ali in Movies - Animation , Quality: Audio 5/10 - Video 5/10
798.3 MB 750 47 1 month 1 week
[i] Ice Age: Collision Course (2016) HDRip 650MB - MkvCage 653.3 MB 367 214 2 days 1 day
[i] Ice Age Collision Course (2016) Hindi D ed 700MB Cam x264 AAC - Downloadhub 712.57 MB 200 93 1 month 4 weeks
[i] Ice.Age.Collision.Course.2016.READNFO.HDRip.XviD.AC3-EVO[PRiME] 1.41 GB 172 114 2 days 1 day
[i] Ice Age Collision Course 2016 - 720p - HDRiP - 750MB - GoenWae 752.3 MB 166 84 1 day 12 hours
[i] Ice Age Collision Course - 2016 - ENGLISH - CAM - x264 - AAC - Makintos13 732.57 MB 127 26 1 month 3 weeks

Top Movies ( auto generated report )

FILENAME SIZE SEEDS PEERS ADDED UPD
[i] Now.You.See.Me.2.2016.1080p.BluRay.x264.AC3-JYK 2.93 GB 8132 5852 1 day 21 hours
[i] Blood.Father.2016.HDRip.XViD-ETRG 711.3 MB 7851 3968 2 days 12 hours
[i] The Conjuring 2 (2016) 720p BluRay - 1.2GB - ShAaNiG 1.2 GB 7125 5490 1 day 13 hours
[i] Jason.Bourne.720p.HDTC.X264-NUKU 2.49 GB 6720 6287 2 hours 2 hours
[i] Jason Bourne (2016) 720p HDTC 850MB - MkvCage 904.3 MB 4312 2138 1 day 8 hours
[i] Blood.Father.2016.720p.WEBRip.x264.AAC-ETRG 662.3 MB 4159 2580 1 day 3 hours
[i] War Dogs 2016 HD-TS x264-CPG 2.1 GB 3948 3105 1 day 2 hours
[i] The.Conjuring.2.2016.720p.BRRip.x264.AAC-ETRG 1004.3 MB 3885 3190 1 day 2 hours
[i] Our.Kind.of.Traitor.2016.HDRip.XviD.AC3-EVO 1.41 GB 3495 4461 2 hours 2 hours
[i] Genius.2016.HDRip.XviD.AC3-EVO 1.39 GB 2250 1125 4 days 3 days
advertising ( remove )