Bit Torrent Scene a public file sharing platform Home Categories Blog About

advertising ( remove )

Jason Bourne 2016 CAM READNFO XviD-BiGDADDYVAiN

DOWNLOAD TORRENT

Posted on August 2, 2016 in Movies » Action , verified torrent

Size: 1.39 GB , Seeds: 36 , Peers: 6 ( Updated August 16, 2016 - Refresh )

* Download via Magnet Link * To download files you need a Bittorrent Client ,

advertising ( remove )

External Info

Trailer | Wikipedia | Other Info

Internal Files

Jason.Bourne.2016.CAM.READNFO.XviD-BiGDADDYVAiN
Jason.Bourne.2016.CAM.READNFO.XviD-BiGDADDYVAiN.avi   1.37 GB
VAiN.nfo   3.33 KB
sample.avi   15.88 MB

Hash Code

119803b63ce2938b4ebe500e273586381a295813

Description

Jason Bourne 2016 CAM READNFO XviD-BiGDADDYVAiN



SCREENSHOT



P R E S E N T S . . . .



Jason.Bourne.2016.CAM.READNFO.XviD-BiGDADDYVAiN



iMDB........: https://www.imdb.com/title/tt4196776/





Code:
T E C H N i C A L . i N F O . . .

Basic Information
Format : AVI
Format/Info : Audio Video Interleave
File size : 1.37 GiB
Duration : 1 h 53 min
Overall bit rate : 1 731 kb/s
Writing application : VirtualDubMod 1.5.10.2 (build 2540/release)
Writing library : VirtualDubMod build 2540/release

Video
ID : 0
Format : MPEG-4 Visual
Format profile : Advanced [email protected]/* */
Format settings, BVOP : 2
Format settings, QPel : No
Format settings, GMC : No warppoints
Format settings, Matrix : Default (MPEG)
Muxing mode : Packed bitstream
Codec ID : XVID
Codec ID/Hint : XviD
Duration : 1 h 53 min
Bit rate : 1 594 kb/s
Width : 634 pixels
Height : 240 pixels
Display aspect ratio : 2.642
Frame rate : 25.000 FPS
Color space : YUV
Chroma subsampling : 4:2:0
Bit depth : 8 bits
Scan type : Progressive
Compression mode : Lossy
Bits/(Pixel*Frame) : 0.419
Stream size : 1.26 GiB (92%)
Writing library : XviD 67

Audio
ID : 1
Format : AC-3
Format/Info : Audio Coding 3
Mode extension : CM (complete main)
Format settings, Endianness : Big
Codec ID : 2000
Duration : 1 h 53 min
Bit rate mode : Constant
Bit rate : 128 kb/s
Channel(s) : 2 channels
Channel positions : Front: L R
Sampling rate : 32.0 kHz
Frame rate : 20.833 FPS (1536 spf)
Compression mode : Lossy
Stream size : 104 MiB (7%)
Alignment : Split accross interleaves
Interleave, duration : 40 ms (1.00 video frame)
Interleave, preload duratio : 500 ms







Screens:





SCREENSHOT SCREENSHOT SCREENSHOT SCREENSHOT

Torrent location

https://peertorrent.com/torrent/5082130/Jason+Bourne+2016+CAM+READNFO+XviD-BiGDADDYVAiN.html

Scrape History ( seeds + peers )

Trackers

Refresh Leechers : Updated August 16, 2016

1. udp://tracker.coppersurfer.tk:6969/announce

2. udp://tracker.coppersurfer.tk:6969

3. udp://tracker.opentrackr.org:1337/announce

4. udp://tracker.leechers-paradise.org:6969/announce

5. udp://eddie4.nl:6969/announce

6. udp://tracker.leechers-paradise.org:6969

7. udp://zer0day.ch:1337/announce

8. udp://tracker.aletorrenty.pl:2710/announce

9. udp://p4p.arenabg.ch:1337/announce

10. udp://9.rarbg.me:2710/announce

11. udp://tracker.sktorrent.net:6969/announce

12. udp://explodie.org:6969/announce

13. udp://tracker.trackerfix.com:80/announce

14. udp://9.rarbg.to:2710/announce

15. udp://tracker.piratepublic.com:1337/announce

Comments

You must log in to add a comment.

Embed Code

Sharing Widget

Related torrents

FILENAME SIZE SEEDS PEERS ADDED UPD
[i]
[i]
Jason Bourne 2016 HD-TS x264-CPG
1.85 GB 4664 1640 4 weeks 6 days
[i] Jason Bourne (2016) 720p HDTC 850MB - MkvCage 904.3 MB 3847 1228 5 days 3 days
[i]
[i]
Jason Bourne 2016 CAM UnKnOwN
Movies - Action , Quality: Audio 3/10 - Video 3/10
1.55 GB 3062 948 1 month 3 weeks
[i] Jason Bourne (2016) 720p HDTS - 1GB - ShAaNiG 1.04 GB 1901 860 5 days 4 days
[i] Jason Bourne (2016) HC - 1080p HDRiP - 2.2GB - ShAaNiG 2.2 GB 1337 797 1 day 3 hours
[i] Jason Bourne (2016) HD-TS 650MB - NBY 652.3 MB 624 66 4 weeks 2 weeks
[i] Jason.Bourne.2016.HC.1080p.HDRip.X264.AC3-EVO[PRiME] 4.05 GB 580 374 1 day 11 hours
[i] Jason Bourne (2016) English 700MB Cam x264 AAC - Downloadhub 705.32 MB 377 96 1 month 2 weeks
[i] Jason Bourne (2016) CAMRip 800MB - MkvCage 805.3 MB 322 33 1 month 3 weeks
[i] Jason Bourne (2016) HDTS x264 [Dual-Audio] [English + Hindi] - Downloadhub
posted by downloadhub in Movies - Action
721.14 MB 312 146 2 weeks 3 days

Top Movies ( auto generated report )

FILENAME SIZE SEEDS PEERS ADDED UPD
[i] Jason.Bourne.720p.HDTC.X264-NUKU
Movies - Action , Quality: Audio 8/10 - Video 8/10
2.49 GB 8305 4566 4 days 3 days
[i] age.Mutant.Ninja.Turtles.Out.of.the.Shadows.2016.720p.WEBRip.x264.AAC-ETRG 843.3 MB 7857 4208 2 days 1 hour
[i] Captain.America.Civil.War.2016.1080p.BluRay.X264-AMIABLE 10.97 GB 5996 9257 3 days 1 day
[i] Captain America Civil War 2016 1080p BluRay x264 DTS-JYK 3.73 GB 5111 8769 2 days 1 day
[i] Captain.America.Civil.War.2016.BRRip.XViD.AC3-ETRG 1.51 GB 3834 3202 3 days 2 days
[i] Captain.America.Civil.War.2016.720p.BRRip.x264.AAC-ETRG 1.08 GB 2459 1961 2 days 1 day
[i] Captain.America.Civil.War.2016.1080p.BRRip.x264.AAC-ETRG 2.17 GB 2134 1653 2 days 1 day
[i] Captain.America.Civil.War.2016.720p.BluRay.X264-AMIABLE[EtHD] 6.64 GB 1738 1844 3 days 2 days
[i] The.Ones.Below.2016.BRRip.XviD.AC3-EVO 1.4 GB 1719 1450 4 days 3 days
[i] Kingsglaive: Final Fantasy XV (2016) 720p WEB-DL - 999MB - ShAaNiG 999.3 MB 1510 2442 2 days 1 day
advertising ( remove )