Bit Torrent Scene a public file sharing platform Home Categories About

Warning! Use a VPN When Downloading Torrents!
Your IP Address is . Location is
Avoid LAWSUITS and FINES! Hide your IP ADDRESS with a VPN!
We strongly recommend using Trust.Zone VPN to anonymize your torrenting. It's FREE!
Get VPN Now for FREE!

Jason Bourne 2016 CAM READNFO XviD-BiGDADDYVAiN

DOWNLOAD TORRENT

Posted on August 2, 2016 in Movies » Action , verified torrent

Size: 1.39 GB , Seeds: 8 , Peers: 4 ( Updated November 9, 2016 - Refresh )

* Download via Magnet Link

Loading...

Scrape History ( seeds + peers )

Internal Files

Jason.Bourne.2016.CAM.READNFO.XviD-BiGDADDYVAiN
Jason.Bourne.2016.CAM.READNFO.XviD-BiGDADDYVAiN.avi   1.37 GB
VAiN.nfo   3.33 KB
sample.avi   15.88 MB

Hash Code

119803b63ce2938b4ebe500e273586381a295813

Description

Jason Bourne 2016 CAM READNFO XviD-BiGDADDYVAiN



SCREENSHOT



P R E S E N T S . . . .



Jason.Bourne.2016.CAM.READNFO.XviD-BiGDADDYVAiN



iMDB........: http://www.imdb.com/title/tt4196776/





Code:
T E C H N i C A L . i N F O . . .

Basic Information
Format : AVI
Format/Info : Audio Video Interleave
File size : 1.37 GiB
Duration : 1 h 53 min
Overall bit rate : 1 731 kb/s
Writing application : VirtualDubMod 1.5.10.2 (build 2540/release)
Writing library : VirtualDubMod build 2540/release

Video
ID : 0
Format : MPEG-4 Visual
Format profile : Advanced [email protected]/* */
Format settings, BVOP : 2
Format settings, QPel : No
Format settings, GMC : No warppoints
Format settings, Matrix : Default (MPEG)
Muxing mode : Packed bitstream
Codec ID : XVID
Codec ID/Hint : XviD
Duration : 1 h 53 min
Bit rate : 1 594 kb/s
Width : 634 pixels
Height : 240 pixels
Display aspect ratio : 2.642
Frame rate : 25.000 FPS
Color space : YUV
Chroma subsampling : 4:2:0
Bit depth : 8 bits
Scan type : Progressive
Compression mode : Lossy
Bits/(Pixel*Frame) : 0.419
Stream size : 1.26 GiB (92%)
Writing library : XviD 67

Audio
ID : 1
Format : AC-3
Format/Info : Audio Coding 3
Mode extension : CM (complete main)
Format settings, Endianness : Big
Codec ID : 2000
Duration : 1 h 53 min
Bit rate mode : Constant
Bit rate : 128 kb/s
Channel(s) : 2 channels
Channel positions : Front: L R
Sampling rate : 32.0 kHz
Frame rate : 20.833 FPS (1536 spf)
Compression mode : Lossy
Stream size : 104 MiB (7%)
Alignment : Split accross interleaves
Interleave, duration : 40 ms (1.00 video frame)
Interleave, preload duratio : 500 ms







Screens:





SCREENSHOT SCREENSHOT SCREENSHOT SCREENSHOT

Torrent location

https://peertorrent.com/torrent/5082130/Jason+Bourne+2016+CAM+READNFO+XviD-BiGDADDYVAiN.html

Trackers

Refresh Leechers : Updated November 9, 2016

1. udp://tracker.coppersurfer.tk:6969/announce

2. udp://tracker.coppersurfer.tk:6969

3. udp://tracker.opentrackr.org:1337/announce

4. udp://tracker.leechers-paradise.org:6969/announce

5. udp://eddie4.nl:6969/announce

6. udp://tracker.leechers-paradise.org:6969

7. udp://zer0day.ch:1337/announce

8. udp://tracker.aletorrenty.pl:2710/announce

9. udp://p4p.arenabg.ch:1337/announce

10. udp://9.rarbg.me:2710/announce

11. udp://tracker.sktorrent.net:6969/announce

12. udp://explodie.org:6969/announce

13. udp://tracker.trackerfix.com:80/announce

14. udp://9.rarbg.to:2710/announce

15. udp://tracker.piratepublic.com:1337/announce

Comments

You must log in to add a comment.

Embed Code

Sharing Widget

Related torrents

FILENAME SIZE SEEDS PEERS ADDED UPD
[i] Jason Bourne 2016 1080p WEB-DL x264 AC3-JYK 3.39 GB 1725 1711 4 months 3 months
[i] Jason.Bourne.2016.HDRip.XViD.AC3-ETRG 1.4 GB 1214 247 4 months 3 months
[i]
[i]
Jason Bourne 2016 HD-TS x264-CPG
1.85 GB 940 148 7 months 4 months
[i] Jason Bourne 2016 1080p BluRay x264 DTS-JYK 3.11 GB 478 139 4 months 3 months
[i] Jason Bourne (2016).H264.Italian.English.Ac3.5.1.sub.Ita.Eng.iCV-MIRCrew
posted by robbyrs in Movies - Action
1.87 GB 365 84 4 months 3 months
[i] Jason Bourne (2016) HC - 1080p HDRiP - 2.2GB - ShAaNiG 2.2 GB 307 12 6 months 3 months
[i]
[i]
Jason Bourne 2016 CAM UnKnOwN
Movies - Action , Quality: Audio 3/10 - Video 3/10
1.55 GB 249 41 7 months 4 months
[i] Jason.Bourne.2016.BRRip.XviD-ETRG 706.82 MB 249 69 4 months 3 months
[i] Jason Bourne (2016) 720p HDTC 850MB - MkvCage 904.3 MB 244 30 7 months 4 months
[i] Jason.Bourne.2016.720p.BRRip.x264.AAC-ETRG 922.3 MB 226 19 4 months 3 months

Top Movies ( auto generated report )

FILENAME SIZE SEEDS PEERS ADDED UPD
[i] Phillauri 2017 Hindi Pre-DvDRip x264 AAC - Team Rainbow 699.15 MB 1969 3411 2 hours 41 min
[i] Resident Evil- The Final Chapter (2016) [1080p] [YTS AG] 1.63 GB 8244 5787 1 day 3 hours
[i] Resident Evil- The Final Chapter (2016) [720p] [YTS AG] 796.72 MB 6998 5922 1 day 3 hours
[i] Hidden Figures (2016) [1080p] [YTS AG] 1.92 GB 4708 3001 1 day 3 hours
[i] Hidden Figures (2016) [720p] [YTS AG] 922.89 MB 4653 3395 1 day 3 hours
[i] Split.2016.HC.HDRip.XViD.AC3-ETRG 1.41 GB 3816 4527 1 day 23 hours
[i] Commando 2 Hindi 2017 DVDscr x264-MRF.mp4.torrent 755.3 MB 1536 5892 2 hours 41 min
[i] Split.2016.1080p.KORSUB.HDRip.x264.AAC2.0-STUTTERSHIT 4.2 GB 3147 1762 1 day 20 hours
[i] Finding Dory (2016) [720p] [YTS AG] 707.53 MB 2030 391 1 week 1 day
[i] Paterson (2016) [720p] [YTS AG] 869.53 MB 1929 1401 1 day 3 hours
advertising ( remove )