Jason Bourne 2016 HDCAM - [CLEANED-AUDIO] - x264 - Zi$t-CTRC

DOWNLOAD TORRENT

Posted on July 31, 2016 in Movies » Action , verified torrent

Size: 714.3 MB , Seeds: 11 , Peers: 11 ( Updated November 7, 2016 - Refresh )

* Download via Magnet Link * To download files you need a Bittorrent Client ,

Scrape History ( seeds + peers )

Internal Files

Jason Bourne 2016 HDCAM - [CLEANED-AUDIO] - x264 - Zi$t-CTRC
CTRC info.txt   433 Byte
Sample.mp4   4.89 MB
Jason Bourne 2016 HDCAM - [CLEANED-AUDIO] - x264 - Zi$t-CTRC.mp4   708.97 MB

Hash Code

e3001b1c32876dbd79e2acfe3d96bba8309f1ce1

Description

Note:Sample Included



SCREENSHOT

SCREENSHOT

SCREENSHOT

SCREENSHOT

SCREENSHOT

SCREENSHOT

SCREENSHOT

SCREENSHOT



General

Complete name : Jason Bourne 2016

Format : MPEG-4

Format profile : Base Media / Version 2

Codec ID : mp42

File size : 709 MiB

Duration : 1h 53mn

Overall bit rate mode : Variable

Overall bit rate : 874 Kbps

Movie name : Jason Bourne 2016 HDCAM - [CLEANED-AUDIO] - x264 - Zi$t-CTRC



Video

ID : 1

Format : AVC

Format/Info : Advanced Video Codec

Format profile : [email protected]/* */

Format settings, CABAC : Yes

Format settings, ReFrames : 4 frames

Codec ID : avc1

Codec ID/Info : Advanced Video Coding

Duration : 1h 53mn

Bit rate : 708 Kbps

Width : 720 pixels

Height : 306 pixels

Display aspect ratio : 2.35:1

Frame rate mode : Constant

Frame rate : 25.000 fps

Color space : YUV

Chroma subsampling : 4:2:0

Bit depth : 8 bits

Scan type : Progressive

Bits/(Pixel*Frame) : 0.129

Stream size : 575 MiB (81%)



Audio

ID : 2

Format : AAC

Format/Info : Advanced Audio Codec

Format profile : LC

Codec ID : 40

Duration : 1h 53mn

Bit rate mode : Variable

Bit rate : 160 Kbps

Channel(s) : 2 channels

Channel positions : Front: L R

Sampling rate : 48.0 KHz

Compression mode : Lossy

Stream size : 130 MiB (18%)

Language : English

Trackers

Refresh Leechers : Updated November 7, 2016

1. udp://torrent.gresille.org:80/announce

2. udp://torrent.gresille.org:80/announce

3. http://retracker.krs-ix.ru/announce

4. http://retracker.krs-ix.ru/announce.php

5. http://pow7.com:80/announce

6. http://tracker.tfile.me/announce

7. http://www.wareztorrent.com/announce

8. udp://tracker.leechers-paradise.org:6969/announce

9. udp://tracker.aletorrenty.pl:2710/announce

10. udp://tracker.eddie4.nl:6969/announce

11. udp://tracker.opentrackr.org:1337/announce

Comments

You must log in to add a comment.

Embed Code

Sharing Widget

Top Movies ( auto generated report )

FILENAME SIZE SEEDS PEERS ADDED UPD
[i] Kong Skull Island (2017) [1080p] [YTS AG] 1.81 GB 13845 10095 1 day 2 hours
[i] Kong- Skull Island (2017) [720p] [YTS AG] 883.55 MB 9677 9528 1 day 2 hours
[i] The Zookeeper's Wife (2017) [720p] [YTS AG] 929.77 MB 2635 2119 4 days 3 days
[i] King.Arthur.Legend.of.the.Sword.2017.1080p.KORSUB.HDRip.x264.AAC2.0-STUTTERSHIT[rarbg] 3.94 GB 8664 6520 1 day 4 hours
[i] Apprentice (2016) [720p] [YTS AG] 715.21 MB 1351 820 2 days 1 day
[i] Cars 3 2017 TS XViD AC3-N O K 1.4 GB 1184 1399 4 days 3 days
[i] King.Arthur.Legend.of.the.Sword.2017.KORSUB.HDRip.x264-STUTTERSHIT[rarbg] 1.03 GB 4512 2499 1 day 4 hours
[i] Apprentice (2016) [1080p] [YTS AG] 1.47 GB 1014 577 2 days 1 day
[i] Kong.Skull.Island.2017.1080p.BluRay.x264-SPARKS[EtHD].torrent 8.75 GB 942 1242 1 day 23 hours
[i] Red Dog True Blue (2016) [720p] [YTS AG] 649 MB 934 389 5 days 4 days