Bit Torrent Scene a public file sharing platform Home Categories Blog About

advertising ( remove )

Jason Bourne 2016 HDCAM - [CLEANED-AUDIO] - x264 - Zi$t-CTRC

DOWNLOAD TORRENT

Posted on July 31, 2016 in Movies » Action , verified torrent

Size: 714.3 MB , Seeds: 135 , Peers: 33 ( Updated August 14, 2016 - Refresh )

* Download via Magnet Link * To download files you need a Bittorrent Client ,

advertising ( remove )

External Info

Trailer | Wikipedia | Other Info

Internal Files

Jason Bourne 2016 HDCAM - [CLEANED-AUDIO] - x264 - Zi$t-CTRC
CTRC info.txt   433 Byte
Sample.mp4   4.89 MB
Jason Bourne 2016 HDCAM - [CLEANED-AUDIO] - x264 - Zi$t-CTRC.mp4   708.97 MB

Hash Code

e3001b1c32876dbd79e2acfe3d96bba8309f1ce1

Description

Note:Sample Included



SCREENSHOT

SCREENSHOT

SCREENSHOT

SCREENSHOT

SCREENSHOT

SCREENSHOT

SCREENSHOT

SCREENSHOT



General

Complete name : Jason Bourne 2016

Format : MPEG-4

Format profile : Base Media / Version 2

Codec ID : mp42

File size : 709 MiB

Duration : 1h 53mn

Overall bit rate mode : Variable

Overall bit rate : 874 Kbps

Movie name : Jason Bourne 2016 HDCAM - [CLEANED-AUDIO] - x264 - Zi$t-CTRC



Video

ID : 1

Format : AVC

Format/Info : Advanced Video Codec

Format profile : [email protected]/* */

Format settings, CABAC : Yes

Format settings, ReFrames : 4 frames

Codec ID : avc1

Codec ID/Info : Advanced Video Coding

Duration : 1h 53mn

Bit rate : 708 Kbps

Width : 720 pixels

Height : 306 pixels

Display aspect ratio : 2.35:1

Frame rate mode : Constant

Frame rate : 25.000 fps

Color space : YUV

Chroma subsampling : 4:2:0

Bit depth : 8 bits

Scan type : Progressive

Bits/(Pixel*Frame) : 0.129

Stream size : 575 MiB (81%)



Audio

ID : 2

Format : AAC

Format/Info : Advanced Audio Codec

Format profile : LC

Codec ID : 40

Duration : 1h 53mn

Bit rate mode : Variable

Bit rate : 160 Kbps

Channel(s) : 2 channels

Channel positions : Front: L R

Sampling rate : 48.0 KHz

Compression mode : Lossy

Stream size : 130 MiB (18%)

Language : English

Torrent location

https://peertorrent.com/torrent/5078577/Jason+Bourne+2016+HDCAM+-+%5BCLEANED-AUDIO%5D+-+x264+-+Zi%24t-CTRC.html

Scrape History ( seeds + peers )

Trackers

Refresh Leechers : Updated August 14, 2016

1. udp://torrent.gresille.org:80/announce

2. udp://torrent.gresille.org:80/announce

3. https://retracker.krs-ix.ru/announce

4. https://retracker.krs-ix.ru/announce.php

5. https://pow7.com:80/announce

6. https://tracker.tfile.me/announce

7. https://www.wareztorrent.com/announce

8. udp://tracker.leechers-paradise.org:6969/announce

9. udp://tracker.aletorrenty.pl:2710/announce

10. udp://tracker.eddie4.nl:6969/announce

11. udp://tracker.opentrackr.org:1337/announce

Comments

You must log in to add a comment.

Embed Code

Sharing Widget

Top Movies ( auto generated report )

FILENAME SIZE SEEDS PEERS ADDED UPD
[i] Jason.Bourne.720p.HDTC.X264-NUKU
Movies - Action , Quality: Audio 8/10 - Video 8/10
2.49 GB 8305 4566 2 days 1 day
[i] Captain.America.Civil.War.2016.1080p.BluRay.X264-AMIABLE 10.97 GB 5996 9257 2 days 33 min
[i] The Conjuring 2 (2016) 720p BluRay - 1.2GB - ShAaNiG 1.2 GB 7125 5490 4 days 3 days
[i] age.Mutant.Ninja.Turtles.Out.of.the.Shadows.2016.720p.WEBRip.x264.AAC-ETRG 843.3 MB 6545 6033 1 day 3 hours
[i] Captain America Civil War 2016 1080p BluRay x264 DTS-JYK 3.73 GB 5111 8769 1 day 17 hours
[i] Blood.Father.2016.720p.WEBRip.x264.AAC-ETRG 662.3 MB 4159 2580 3 days 2 days
[i] War Dogs 2016 HD-TS x264-CPG 2.1 GB 3948 3105 3 days 2 days
[i] The.Conjuring.2.2016.720p.BRRip.x264.AAC-ETRG 1004.3 MB 3885 3190 3 days 2 days
[i] Jason Bourne (2016) 720p HDTC 850MB - MkvCage 904.3 MB 3847 1228 4 days 2 days
[i] Captain.America.Civil.War.2016.BRRip.XViD.AC3-ETRG 1.51 GB 3834 3202 1 day 22 hours
advertising ( remove )