Bit Torrent Scene a public file sharing platform Home Categories About

Warning! Use a VPN When Downloading Torrents!
Your IP Address is . Location is
Avoid LAWSUITS and FINES! Hide your IP ADDRESS with a VPN!
We strongly recommend using Trust.Zone VPN to anonymize your torrenting. It's FREE!
Get VPN Now for FREE!

Jason Bourne 2016 HDCAM - [CLEANED-AUDIO] - x264 - Zi$t-CTRC

DOWNLOAD TORRENT

Posted on July 31, 2016 in Movies » Action , verified torrent

Size: 714.3 MB , Seeds: 11 , Peers: 11 ( Updated November 7, 2016 - Refresh )

* Download via Magnet Link

Loading...

Scrape History ( seeds + peers )

Internal Files

Jason Bourne 2016 HDCAM - [CLEANED-AUDIO] - x264 - Zi$t-CTRC
CTRC info.txt   433 Byte
Sample.mp4   4.89 MB
Jason Bourne 2016 HDCAM - [CLEANED-AUDIO] - x264 - Zi$t-CTRC.mp4   708.97 MB

Hash Code

e3001b1c32876dbd79e2acfe3d96bba8309f1ce1

Description

Note:Sample Included



SCREENSHOT

SCREENSHOT

SCREENSHOT

SCREENSHOT

SCREENSHOT

SCREENSHOT

SCREENSHOT

SCREENSHOT



General

Complete name : Jason Bourne 2016

Format : MPEG-4

Format profile : Base Media / Version 2

Codec ID : mp42

File size : 709 MiB

Duration : 1h 53mn

Overall bit rate mode : Variable

Overall bit rate : 874 Kbps

Movie name : Jason Bourne 2016 HDCAM - [CLEANED-AUDIO] - x264 - Zi$t-CTRC



Video

ID : 1

Format : AVC

Format/Info : Advanced Video Codec

Format profile : [email protected]/* */

Format settings, CABAC : Yes

Format settings, ReFrames : 4 frames

Codec ID : avc1

Codec ID/Info : Advanced Video Coding

Duration : 1h 53mn

Bit rate : 708 Kbps

Width : 720 pixels

Height : 306 pixels

Display aspect ratio : 2.35:1

Frame rate mode : Constant

Frame rate : 25.000 fps

Color space : YUV

Chroma subsampling : 4:2:0

Bit depth : 8 bits

Scan type : Progressive

Bits/(Pixel*Frame) : 0.129

Stream size : 575 MiB (81%)



Audio

ID : 2

Format : AAC

Format/Info : Advanced Audio Codec

Format profile : LC

Codec ID : 40

Duration : 1h 53mn

Bit rate mode : Variable

Bit rate : 160 Kbps

Channel(s) : 2 channels

Channel positions : Front: L R

Sampling rate : 48.0 KHz

Compression mode : Lossy

Stream size : 130 MiB (18%)

Language : English

Torrent location

http://peertorrent.com/torrent/5078577/Jason+Bourne+2016+HDCAM+-+%5BCLEANED-AUDIO%5D+-+x264+-+Zi%24t-CTRC.html

Trackers

Refresh Leechers : Updated November 7, 2016

1. udp://torrent.gresille.org:80/announce

2. udp://torrent.gresille.org:80/announce

3. http://retracker.krs-ix.ru/announce

4. http://retracker.krs-ix.ru/announce.php

5. http://pow7.com:80/announce

6. http://tracker.tfile.me/announce

7. http://www.wareztorrent.com/announce

8. udp://tracker.leechers-paradise.org:6969/announce

9. udp://tracker.aletorrenty.pl:2710/announce

10. udp://tracker.eddie4.nl:6969/announce

11. udp://tracker.opentrackr.org:1337/announce

Comments

You must log in to add a comment.

Embed Code

Sharing Widget

Top Movies ( auto generated report )

FILENAME SIZE SEEDS PEERS ADDED UPD
[i] Patriots Day 2016 1080p BluRay x264 DTS-JYK 3.36 GB 3746 3901 7 hours 5 hours
[i] The.Space.Between.Us.2017.HC.HDRip.XViD.AC3-ETRG 1.4 GB 3374 3964 3 days 2 days
[i] Resident.Evil.The.Final.Chapter.2016.1080p.BluRay.x264.DTS-JYK 2.69 GB 1737 717 2 days 2 hours
[i] Breaking.Bad.The.Movie.2017.HDRip.XViD.AC3-ETRG 1.4 GB 1997 607 2 days 1 day
[i] Paterson (2016) [1080p] [YTS AG] 1.8 GB 1851 1108 3 days 2 days
[i] The Chamber (2016) [720p] [YTS AG] 663.13 MB 1408 444 5 days 6 hours
[i] Hidden.Figures.2016.720p.BRRip.x264.AAC-ETRG 949.3 MB 1676 1382 2 days 1 day
[i] The Chamber (2016) [1080p] [YTS AG] 1.37 GB 1524 927 5 days 4 days
[i] Dig.Two.Graves.2014.HDRip.XViD-ETRG 712.3 MB 1474 1090 1 day 8 hours
[i] Prevenge.2016.HDRip.XViD-ETRG 709.3 MB 1457 1137 1 day 9 hours
advertising ( remove )