Johan.Falk.Kodnamn.Lisa.2013.720p.BluRay.x264-KraBBa

DOWNLOAD TORRENT

Posted on November 8, 2012 in Movies » Action , verified torrent

Size: 5.44 GB , Seeds: 0 , Peers: 0 ( Updated June 4, 2017 - Refresh )

Could not find any peer statistics from any torrent tracker.
This does not mean the torrent is dead.

Quality: Audio 10/10 - Video 10/10 ( defined by users )

* Download via Magnet Link * To download files you need a Bittorrent Client ,

Scrape History ( seeds + peers )

Internal Files

Johan.Falk.Kodnamn.Lisa.2013.720p.BluRay.x264-KraBBa
KraBBa-klisa.r39   95.37 MB
KraBBa-klisa.r38   95.37 MB
KraBBa-klisa.r40   95.37 MB
KraBBa-klisa.r41   95.37 MB
KraBBa-klisa.r43   95.37 MB
KraBBa-klisa.r42   95.37 MB
KraBBa-klisa.r37   95.37 MB
KraBBa-klisa.r36   95.37 MB
KraBBa-klisa.r31   95.37 MB
KraBBa-klisa.r30   95.37 MB
KraBBa-klisa.r32   95.37 MB
KraBBa-klisa.r33   95.37 MB
KraBBa-klisa.r35   95.37 MB
KraBBa-klisa.r34   95.37 MB
KraBBa-klisa.r44   95.37 MB
KraBBa-klisa.r45   95.37 MB
KraBBa-klisa.r54   95.37 MB
KraBBa-klisa.r53   95.37 MB
KraBBa-klisa.r55   95.37 MB
KraBBa-klisa.r56   92.8 MB
KraBBa-klisa.sfv   4.63 KB
KraBBa-klisa.rar   95.37 MB
KraBBa-klisa.r52   95.37 MB
KraBBa-klisa.r51   95.37 MB
KraBBa-klisa.r47   95.37 MB
KraBBa-klisa.r46   95.37 MB
KraBBa-klisa.r48   95.37 MB
KraBBa-klisa.r49   95.37 MB
KraBBa-klisa.r50   95.37 MB
KraBBa-klisa.nfo   2.17 KB
KraBBa-klisa.r29   95.37 MB
KraBBa-klisa.r08   95.37 MB
KraBBa-klisa.r07   95.37 MB
KraBBa-klisa.r09   95.37 MB
KraBBa-klisa.r10   95.37 MB
KraBBa-klisa.r12   95.37 MB
KraBBa-klisa.r11   95.37 MB
KraBBa-klisa.r06   95.37 MB
KraBBa-klisa.r05   95.37 MB
KraBBa-klisa.r01   95.37 MB
KraBBa-klisa.r00   95.37 MB
KraBBa-klisa.r02   95.37 MB
KraBBa-klisa.r03   95.37 MB
KraBBa-klisa.r04   95.37 MB
KraBBa-klisa.r13   95.37 MB
KraBBa-klisa.r14   95.37 MB
KraBBa-klisa.r23   95.37 MB
KraBBa-klisa.r22   95.37 MB
KraBBa-klisa.r24   95.37 MB
KraBBa-klisa.r25   95.37 MB
KraBBa-klisa.r27   95.37 MB
KraBBa-klisa.r26   95.37 MB
KraBBa-klisa.r28   95.37 MB
KraBBa-klisa.r21   95.37 MB
KraBBa-klisa.r16   95.37 MB
KraBBa-klisa.r15   95.37 MB
KraBBa-klisa.r20   95.37 MB
KraBBa-klisa.r17   95.37 MB
KraBBa-klisa.r18   95.37 MB
KraBBa-klisa.r19   95.37 MB
KraBBa-klisa.sample.mkv   44.96 MB

Hash Code

98a46f1214e0db061b7f05b2fe7522cbcf3fa237

Description


General
Complete name : KraBBa-klisa.mkv
Format : Matroska
Format version : Version 2
File size : 5.40 GiB
Duration : 1h 45mn
Overall bit rate : 7 311 Kbps
Encoded date : UTC 2012-11-07 23:11:52
Writing application : mkvmerge v5.8.0 ('No Sleep / Pillow') built on Sep 2 2012 15:37:04
Writing library : libebml v1.2.3 + libmatroska v1.3.0

Video
ID : 1
Format : AVC
Format/Info : Advanced Video Codec
Format profile : [email protected]
Format settings, CABAC : Yes
Format settings, ReFrames : 5 frames
Codec ID : V_MPEG4/ISO/AVC
Duration : 1h 45mn
Bit rate : 5 801 Kbps
Width : 1 280 pixels
Height : 720 pixels
Display aspect ratio : 16:9
Frame rate mode : Constant
Frame rate : 23.976 fps
Color space : YUV
Chroma subsampling : 4:2:0
Bit depth : 8 bits
Scan type : Progressive
Bits/(Pixel*Frame) : 0.263
Stream size : 4.18 GiB (77%)
Writing library : x264 core 128 r2216 198a7ea
Default : Yes
Forced : No

Audio
ID : 2
Format : DTS
Format/Info : Digital Theater Systems
Codec ID : A_DTS
Duration : 1h 45mn
Bit rate mode : Constant
Bit rate : 1 510 Kbps
Channel(s) : 6 channels
Channel positions : Front: L C R, Side: L R, LFE
Sampling rate : 48.0 KHz
Bit depth : 24 bits
Compression mode : Lossy
Stream size : 1.11 GiB (21%)
Language : Swedish
Default : Yes
Forced : No

Torrent location

http://thepiratebay.se/torrent/7805087/Johan.Falk.Kodnamn.Lisa.2013.720p.BluRay.x264-KraBBa

Trackers

Refresh Leechers : Updated June 4, 2017

1. http://tracker.thepiratebay.org/announce

2. udp://tracker.openbittorrent.com:80

3. udp://tracker.ccc.de:80

4. udp://tracker.publicbt.com:80

Comments

You must log in to add a comment.

Courtney2 •182 2012-11-09 19:33:11

AUDIO: 10 - VIDEO: 10

simply amazing!!!

Embed Code

Sharing Widget

Related torrents

FILENAME SIZE SEEDS PEERS ADDED UPD
[i] Johan.Falk.12.Kodnamn.Lisa.2012.720p.BluRay.x264-iMSORNY [PublicHD] 4.39 GB 1 0 4 years 4 weeks
[i] Johan.Falk.Kodnamn.Lisa.2013.BRRip.XviD.5rFF 1.39 GB 0 0 3 years 1 month

Top Movies ( auto generated report )

FILENAME SIZE SEEDS PEERS ADDED UPD
[i] Going in Style (2017) [720p] [YTS AG] 713.31 MB 7555 4189 1 day 8 hours
[i] Going in Style (2017) [1080p] [YTS AG] 1.47 GB 6548 3336 1 day 8 hours
[i] Colossal (2016) [720p] [YTS AG] 797.03 MB 2620 1311 2 days 1 day
[i] Colossal (2016) [1080p] [YTS AG] 1.66 GB 2497 1293 2 days 1 day
[i] S W A T - Under Siege (2017) [720p] [YTS AG] 665.25 MB 2586 1468 1 day 8 hours
[i] Sleight (2016) [720p] [YTS AG] 658.87 MB 1861 1053 2 days 1 day
[i] S W A T - Under Siege (2017) [1080p] [YTS AG] 1.36 GB 1817 972 1 day 8 hours
[i] Sleight (2016) [1080p] [YTS AG] 1.36 GB 1417 561 2 days 1 day
[i] The Hippopotamus (2017) [720p] [YTS AG] 655.89 MB 1438 559 1 day 8 hours
[i] The Hippopotamus (2017) [1080p] [YTS AG] 1.36 GB 1198 495 1 day 8 hours