Mad Max *1979*[mini-HD.1080p.AC3.BDRip.x264-LEON 345]

DOWNLOAD TORRENT

Posted on August 16, 2016 in Movies » Sci-Fi , verified torrent

Size: 3.89 GB , Seeds: 6 , Peers: 4 ( Updated September 19, 2016 - Refresh )

* Download via Magnet Link * To download files you need a Bittorrent Client ,

Scrape History ( seeds + peers )

Internal Files

Mad.Max(1979)1080p.BDRip.Leon345
Mad.Max(1979)1080p.BDRip.Leon345.mkv   3.89 GB
Mad.Max.jpg   71.46 KB
Torrent downloaded from agusiq-torrents.pl upload Leon345.txt   3.94 KB

Hash Code

f44a19b1eb64382bdf0979a7543a788a782902f3

Description

Mad Max *1979* 1080p.BDRip.AC3 2.0.Leon345

===========================================



Kopia mini-HD 1080p = 3,88 GB



Kopie mini-HD, to kopie specjalistyczne o dużej rozdzielczości (1920 x 1080), które mimo niewielkiego ciÄ™żaru (w MB) zachowują wysoką jakość.



Szczególnie polecam tym, którzy chcą zaoszczÄ™dzić czas i przestrzeń na dysku.



Taką kopiÄ™ można także bez problemu nagrać na zwykłą płytÄ™ DVD lub przenieś na zewnÄ™trzną pamiÄ™ć.



Ważne jest również to, że tą wersjÄ™ mogą obejrzeć osoby, których sprzÄ™t ma ograniczenia w postaci obsługi tylko formatu FAT, jak wiadomo taki format obsłuży filmy, które mają maksymalnie 4GB, wiÄ™c w tym przypadku ta wersja jest też dla nich.

===================================================



SCREENSHOT



Produkcja: Australia

Gatunek: Sensacyjny, Sci-Fi

Premiera: 30 grudnia 1979 (Polska), 12 kwietnia 1979 (świat)

Reżyseria: George Miller

Scenariusz: George Miller, James McCausland



http://imdb.com/title/tt0079501/



Kultowy film akcji. Świat po wojnie nuklearnej. Australią rządzą brutalni członkowie gangów motocyklowych, którzy atakują każdego, kto stanie na ich drodze. Tytułowy Mad Max to bezwglÄ™dny policjant, a prywatnie czuły mąż i kochający ojciec, który w pojedynkÄ™ postanawia wymierzyć sprawiedliwość. Kiedy w czasie pościgu nieumyślnie doprowadza do śmierci lidera gangu motocyklowego, Nocnego Jeźdźca ta przypadkowa śmierć staje siÄ™ pierwszym ogniwem łańcucha wypadków, które zburzą spokój miasta, a także samego bohatera.



Obsada:



Mel Gibson - Max Rockatansky

Joanne Samuel .- Jessie Rockatansky

Hugh Keays-Byrne - Toecutter

Steve Bisley .-Jim Goose

Tim Burns .- Johnny, chłopiec

Roger Ward - Fifi Macaffee

Lisa Aldenhoven - Pielęgniarka

David Bracks - Mudguts



General



Format : Matroska

Format version : Version 2

File size : 3.89 GiB

Duration : 1h 33mn

Overall bit rate : 5 972 Kbps

Movie name : Mad.Max.(1979)1080p.BDRip.Leon345

Encoded date : UTC 2016-08-16 09:27:35

Writing application : mkvmerge v5.7.0 ('The Whirlwind') built on Jul 8 2012 20:08:51

Writing library : libebml v1.2.3 + libmatroska v1.3.0



Video

ID : 1

Format : AVC

Format/Info : Advanced Video Codec

Format profile : [email protected]/* */

Format settings, CABAC : Yes

Format settings, ReFrames : 4 frames

Codec ID : V_MPEG4/ISO/AVC

Duration : 1h 33mn

Bit rate : 5 699 Kbps

Width : 1 920 pixels

Height : 820 pixels

Display aspect ratio : 2.35:1

Frame rate mode : Constant

Frame rate : 23.976 (24000/1001) fps

Color space : YUV

Chroma subsampling : 4:2:0

Bit depth : 8 bits

Scan type : Progressive

Bits/(Pixel*Frame) : 0.151

Stream size : 3.64 GiB (94%)

Writing library : x264

Encoding settings : cabac=1 / [****]4 / deblock=1:-1:-1 / rc=2pass

Default : Yes

Forced : No



Audio #1

ID : 2

Format : AC-3

Format/Info : Audio Coding 3

Mode extension : CM (complete main)

Format settings, Endianness : Big

Codec ID : A_AC3

Duration : 1h 33mn

Bit rate mode : Constant

Bit rate : 128 Kbps

Channel(s) : 2 channels

Channel positions : Front: L R

Sampling rate : 48.0 KHz

Frame rate : 31.250 fps (1536 spf)

Compression mode : Lossy

Stream size : 85.3 MiB (2%)

Title : AC3 2.0 Lektor PL

Language : Polish

Default : Yes

Forced : No



Audio #2

ID : 3

Format : AC-3

Format/Info : Audio Coding 3

Mode extension : CM (complete main)

Format settings, Endianness : Big

Codec ID : A_AC3

Duration : 1h 33mn

Bit rate mode : Constant

Bit rate : 128 Kbps

Channel(s) : 2 channels

Channel positions : Front: L R

Sampling rate : 48.0 KHz

Frame rate : 31.250 fps (1536 spf)

Compression mode : Lossy

Stream size : 85.3 MiB (2%)

Title : AC3 2.0 ENG

Language : English

Default : No

Forced : No



Text #1

ID : 4

Format : UTF-8

Codec ID : S_TEXT/UTF8

Codec ID/Info : UTF-8 Plain Text

Title : napisy PL

Language : Polish

Default : No

Forced : No



Text #2

ID : 5

Format : UTF-8

Codec ID : S_TEXT/UTF8

Codec ID/Info : UTF-8 Plain Text

Title : napisy ENG

Language : English

Default : No

Forced : No



Text #3

ID : 6

Format : PGS

Muxing mode : zlib

Codec ID : S_HDMV/PGS

Codec ID/Info : Picture based subtitle format used on BDs/HD-DVDs

Title : Bluray orginal

Language : Polish

Default : No

Forced : No



Text #4

ID : 7

Format : PGS

Muxing mode : zlib

Codec ID : S_HDMV/PGS

Codec ID/Info : Picture based subtitle format used on BDs/HD-DVDs

Title : Bluray orginal

Language : English

Default : No

Forced : No



Source:

A/V- Mad Max(1979)1080p Blu-ray EUR AVC DTS HD-MA 5.1

Trackers

Refresh Leechers : Updated September 19, 2016

1. http://pow7.com:80/announce

2. http://pow7.com/announce

3. http://tracker.filetracker.pl:8089/announce

4. http://tracker.aletorrenty.pl:2710/announce

5. http://tracker.tfile.me/announce

6. http://retracker.omsk.ru:2710/announce

7. http://mgtracker.org:2710/announce

8. udp://tracker.leechers-paradise.org:6969/announce

Comments

You must log in to add a comment.

Embed Code

Sharing Widget

Related torrents

FILENAME SIZE SEEDS PEERS ADDED UPD
[i] Alien.1979.Directors.Cut.1080p.BluRay.H264.AAC-RARBG 2.21 GB 140 13 2 years 3 days
[i] Afghanistan 1979 The War That Changed the World 1080p x264 AAC H 1.74 GB 45 4 2 weeks 6 hours
[i] Cheap Trick - The Forum LA(Deluxe 2-CD) 1979 ak320 328.65 MB 44 3 1 month 1 day
[i] Stalker (1979) 720p BRRip 1.2GB - MkvCage 1.21 GB 43 3 2 years 1 year
[i] Kramer vs. Kramer (1979) 720p BrRip x264 - YIFY 814.5 MB 42 9 3 years 1 week
[i] Nosferatu the Vampyre (1979) 1080p BrRip x264 - YIFY 1.64 GB 38 7 3 years 5 days
[i] Monty Pythons Life of Brian 1979 1080p BluRay H264 AAC-RARBG 1.79 GB 34 3 2 years 1 year
[i] Accept - Discography [[email protected]] 1.66 GB 28 10 1 year 3 months
[i] Hair 1979 BDRip 1080p x264 DTS multisub-HighCode
posted by High_Code in Movies - Comedy
6.2 GB 26 1 3 weeks 1 week
[i] Tess (1979) 720p.BRrip.Sujaidr (criterion) 1.49 GB 23 1 3 years 1 week

Top Movies ( auto generated report )

FILENAME SIZE SEEDS PEERS ADDED UPD
[i] Going in Style (2017) [720p] [YTS AG] 713.31 MB 7555 4189 3 days 2 days
[i] Going in Style (2017) [1080p] [YTS AG] 1.47 GB 6548 3336 3 days 2 days
[i] The Circle (2017) [1080p] [YTS AG] 1.68 GB 4522 2933 2 days 1 day
[i] The Circle (2017) [720p] [YTS AG] 812.53 MB 4292 3059 2 days 1 day
[i] Colossal (2016) [720p] [YTS AG] 797.03 MB 2620 1311 4 days 3 days
[i] S W A T - Under Siege (2017) [720p] [YTS AG] 665.25 MB 2586 1468 3 days 2 days
[i] Colossal (2016) [1080p] [YTS AG] 1.66 GB 2497 1293 4 days 3 days
[i] Sleight (2016) [720p] [YTS AG] 658.87 MB 1861 1053 4 days 3 days
[i] S W A T - Under Siege (2017) [1080p] [YTS AG] 1.36 GB 1817 972 3 days 2 days
[i] The Girl from the Song (2017) [1080p] [YTS AG] 1.56 GB 1472 891 2 days 1 day