Mad Max 2: The Road Warrior *1981* [mini-HD.1080p.AC3.BDRip.x264-LEON 345]

DOWNLOAD TORRENT

Posted on August 17, 2016 in Movies » Sci-Fi , verified torrent

Size: 3.92 GB , Seeds: 4 , Peers: 3 ( Updated September 20, 2016 - Refresh )

* Download via Magnet Link * To download files you need a Bittorrent Client ,

Scrape History ( seeds + peers )

Internal Files

Mad.Max.2(1981)1080p.BDRip.Leon345
Mad.Max2(1981)1080p.BDRip.Leon345.mkv   3.91 GB
Mad.Max.2.jpg   116.7 KB
Torrent downloaded from agusiq-torrents.pl upload Leon345.txt   3.94 KB

Hash Code

935ef04774a888e2c5101dd31be4689bec201c19

Description

Mad Max 2 *1981* 1080p.BDRip.AC3 2.0.Leon345

===========================================



Kopia mini-HD 1080p = 3,88 GB



Kopie mini-HD, to kopie specjalistyczne o dużej rozdzielczości (1920 x 1080), które mimo niewielkiego ciÄ™żaru (w MB) zachowują wysoką jakość.



Szczególnie polecam tym, którzy chcą zaoszczÄ™dzić czas i przestrzeń na dysku.



Taką kopiÄ™ można także bez problemu nagrać na zwykłą płytÄ™ DVD lub przenieś na zewnÄ™trzną pamiÄ™ć.



Ważne jest również to, że tą wersjÄ™ mogą obejrzeć osoby, których sprzÄ™t ma ograniczenia w postaci obsługi tylko formatu FAT, jak wiadomo taki format obsłuży filmy, które mają maksymalnie 4GB, wiÄ™c w tym przypadku ta wersja jest też dla nich.

===================================================



SCREENSHOT



Produkcja: Australia

Gatunek: Sensacyjny, Sci-Fi

Premiera: 30 grudnia 1990 (Polska), 24 grudnia 1981 (świat)

Reżyseria: George Miller

Scenariusz: Brian Hannant, George Miller, Terry Hayes



http://imdb.com/title/tt0082694/



Mad Max żyje tylko po to, by przetrwać i samotnie przemierza wyniszczoną wojną nuklearną AustraliÄ™. Ludzie żyją w ufortyfikowanych osadach, a benzyna jest na wagÄ™ złota. Były policjant przybywa do jednego z takich miasteczek i podejmie siÄ™ ochrony osady oraz bezcennych złóż ropy naftowej przed bezwzglÄ™dnym gangiem złodziei.



Obsada:



Mel Gibson - Max

Bruce Spence - Kapitan

Michael Preston - Pappagallo

Max Phipps - Toadie

Vernon Wells - Wez



General



Format : Matroska

Format version : Version 2

File size : 3.91 GiB

Duration : 1h 35mn

Overall bit rate : 5 866 Kbps

Movie name : Mad.Max.2(1981)1080p.BDRip.Leon345

Encoded date : UTC 2016-08-16 09:51:21

Writing application : mkvmerge v5.7.0 ('The Whirlwind') built on Jul 8 2012 20:08:51

Writing library : libebml v1.2.3 + libmatroska v1.3.0



Video

ID : 1

Format : AVC

Format/Info : Advanced Video Codec

Format profile : [email protected]/* */

Format settings, CABAC : Yes

Format settings, ReFrames : 4 frames

Codec ID : V_MPEG4/ISO/AVC

Duration : 1h 35mn

Bit rate : 5 599 Kbps

Width : 1 908 pixels

Height : 796 pixels

Display aspect ratio : 2.40:1

Frame rate mode : Constant

Frame rate : 23.976 (24000/1001) fps

Color space : YUV

Chroma subsampling : 4:2:0

Bit depth : 8 bits

Scan type : Progressive

Bits/(Pixel*Frame) : 0.154

Stream size : 3.66 GiB (94%)

Writing library : x264

Encoding settings : cabac=1 / [****]4 / deblock=1:-1:-1 /rc=2pass

Default : Yes

Forced : No



Audio #1

ID : 2

Format : AC-3

Format/Info : Audio Coding 3

Mode extension : CM (complete main)

Format settings, Endianness : Big

Codec ID : A_AC3

Duration : 1h 35mn

Bit rate mode : Constant

Bit rate : 128 Kbps

Channel(s) : 2 channels

Channel positions : Front: L R

Sampling rate : 48.0 KHz

Compression mode : Lossy

Stream size : 87.4 MiB (2%)

Title : AC3 2.0 Lektor PL

Language : Polish

Default : Yes

Forced : No



Audio #2

ID : 3

Format : AC-3

Format/Info : Audio Coding 3

Mode extension : CM (complete main)

Format settings, Endianness : Big

Codec ID : A_AC3

Duration : 1h 35mn

Bit rate mode : Constant

Bit rate : 128 Kbps

Channel(s) : 2 channels

Channel positions : Front: L R

Sampling rate : 48.0 KHz

Compression mode : Lossy

Stream size : 87.4 MiB (2%)

Title : AC3 2.0 ENG

Language : English

Default : No

Forced : No



Text #1

ID : 4

Format : UTF-8

Codec ID : S_TEXT/UTF8

Codec ID/Info : UTF-8 Plain Text

Title : napisy PL

Language : Polish

Default : No

Forced : No



Text #2

ID : 5

Format : UTF-8

Codec ID : S_TEXT/UTF8

Codec ID/Info : UTF-8 Plain Text

Title : napisy ENG

Language : English

Default : No

Forced : No



Text #3

ID : 6

Format : PGS

Muxing mode : zlib

Codec ID : S_HDMV/PGS

Codec ID/Info : Picture based subtitle format used on BDs/HD-DVDs

Title : Bluray orginal

Language : Polish

Default : No

Forced : No



Text #4

ID : 7

Format : PGS

Muxing mode : zlib

Codec ID : S_HDMV/PGS

Codec ID/Info : Picture based subtitle format used on BDs/HD-DVDs

Title : Bluray orginal

Language : English

Default : No

Forced : No



Source:

A/V- Mad Max 2(1981)1080p Blu-ray EUR AVC DTS HD-MA 5.1

Torrent location

http://extra-to.pbproxy.red/torrent/5112719/Mad+Max+2%3A+The+Road+Warrior+%2A1981%2A+%5Bmini-HD.1080p.AC3.BDRip.x264-LEON+345%5D.html

Trackers

Refresh Leechers : Updated September 20, 2016

1. http://pow7.com:80/announce

2. http://pow7.com/announce

3. http://tracker.filetracker.pl:8089/announce

4. http://tracker.aletorrenty.pl:2710/announce

5. http://tracker.tfile.me/announce

6. http://retracker.omsk.ru:2710/announce

7. http://mgtracker.org:2710/announce

8. udp://tracker.leechers-paradise.org:6969/announce

Comments

You must log in to add a comment.

Embed Code

Sharing Widget

Top Movies ( auto generated report )

FILENAME SIZE SEEDS PEERS ADDED UPD
[i] Fifty Shades Darker (2017) [720p] [YTS AG] 961.72 MB 5577 5458 2 days 3 hours
[i] Fifty Shades Darker (2017) [1080p] [YTS AG] 1.99 GB 4474 5396 2 days 1 day
[i] Bahubali 2 (2017) Desi Cam HinDI - AVC - AAC - Team IcTv Exclusive 728.3 MB 4852 4373 1 day 8 hours
[i] Mine (HDRip) 1.78 GB 3690 890 4 days 2 days
[i] De-mentes criminales (HDRip) 1.69 GB 2952 1046 3 days 2 days
[i] The devil's dolls (HDRip) 1.42 GB 1678 648 2 days 1 day
[i] Mythica- The Iron Crown (2016) [720p] [YTS AG] 718.3 MB 1662 1416 2 days 1 day
[i] Hacker (2016) [720p] [YTS AG] 794.52 MB 1531 1927 15 hours 13 hours
[i] Mythica - The Iron Crown (2016) [1080p] [YTS AG] 1.48 GB 1281 623 1 day 16 hours
[i] Fifty.Shades.Darker.2017.UNRATED.1080p.WEB-DL.DD5.1.H264-FGT 4.54 GB 1190 378 3 days 1 day