Mission.Steeps.2014.DVDRip.x264-13[PRiME]

DOWNLOAD TORRENT

Posted on May 19, 2017 in Movies » Misc , verified torrent

Size: 320.65 MB , Seeds: 1 , Peers: 3 ( Updated May 20, 2017 - Refresh )

* Download via Magnet Link * To download files you need a Bittorrent Client ,

Scrape History ( seeds + peers )

Internal Files

Mission.Steeps.2014.DVDRip.x264-13[PRiME]
Mission.Steeps.2014.DVDRip.x264-13[PRiME].mkv   320.43 MB
Please Support!! Read More!!!.txt   334 Byte

Hash Code

ba15de163cb8a1e547ab8f42156a57922e346a79

Description


Mission.Steeps.2014.DVDRip.x264-13[PRiME]

ImDb: http://www.imdb.com/title/tt4610644

SCREENSHOT

Complete name : Mission.Steeps.2014.DVDRip.x264-13[PRiME].mkv
Format : Matroska
Format version : Version 4 / Version 2
File size : 320 MiB
Duration : 33 min 1 s
Overall bit rate : 1 357 kb/s
Movie name : Mission.Steeps.2014.DVDRip.x264-13
Encoded date : UTC 2017-04-24 03:45:56
Writing application : mkvmerge v11.0.0 ('Alive') 64bit
Writing library : libebml v1.3.4 + libmatroska v1.4.5

Video
ID : 1
Format : AVC
Format/Info : Advanced Video Codec
Format profile : [email protected]/* */
Format settings, CABAC : Yes
Format settings, ReFrames : 5 frames
Codec ID : V_MPEG4/ISO/AVC
Duration : 33 min 1 s
Bit rate : 1 265 kb/s
Width : 720 pixels
Height : 346 pixels
Display aspect ratio : 2.081
Frame rate mode : Constant
Frame rate : 25.000 FPS
Color space : YUV
Chroma subsampling : 4:2:0
Bit depth : 8 bits
Scan type : Progressive
Bits/(Pixel*Frame) : 0.203
Stream size : 299 MiB (93%)
Writing library : x264 core 148 r2762 90a61ec
Encoding settings : cabac=1 / ref=5 / deblock=1:0:0 / analyse=0x3:0x113 / me=hex / subme=8 / psy=1 / psy_rd=1.00:0.00 / mixed_ref=1 / me_range=16 / chroma_me=1 / trellis=2 / 8x8dct=1 / cqm=0 / deadzone=21,11 / fast_pskip=1 / chroma_qp_offset=-2 / threads=6 / lookahead_threads=1 / sliced_threads=0 / nr=0 / decimate=1 / interlaced=0 / bluray_compat=0 / constrained_intra=0 / bframes=3 / b_pyramid=2 / b_adapt=1 / b_bias=0 / direct=3 / weightb=1 / open_gop=0 / weightp=2 / keyint=250 / keyint_min=25 / scenecut=40 / intra_refresh=0 / rc_lookahead=50 / rc=crf / mbtree=1 / crf=19.0 / qcomp=0.60 / qpmin=0 / qpmax=69 / qpstep=4 / ip_ratio=1.40 / aq=1:1.00
Language : English
Default : Yes
Forced : No

Audio
ID : 2
Format : AAC
Format/Info : Advanced Audio Codec
Format profile : LC
Codec ID : A_AAC
Duration : 33 min 1 s
Bit rate : 89.9 kb/s
Channel(s) : 2 channels
Channel positions : Front: L R
Sampling rate : 48.0 kHz
Frame rate : 46.875 FPS (1024 spf)
Compression mode : Lossy
Delay relative to video : 9 ms
Stream size : 21.2 MiB (7%)
Language : English
Default : Yes
Forced : No

SCREENSHOT

Click Image To View Full Size

SCREENSHOT
Click To View Screenshot
Click To View Screenshot
Click To View Screenshot

Torrent location

https://www.1337x.to/torrent/2218972/Mission-Steeps-2014-DVDRip-x264-13-PRiME/

Trackers

Refresh Leechers : Updated May 20, 2017

1. http://explodie.org:6969/announce

2. http://tracker.tfile.me/announce

3. http://bigfoot1942.sektori.org:6969/announce

4. http://tracker2.wasabii.com.tw:6969/announce

5. http://tracker.mg64.net:6881/announce

6. http://bt.artvid.ru:6969/announce

7. http://tracker1.wasabii.com.tw:6969/announce

8. http://open.acgtracker.com:1096/announce

9. http://tracker.opentrackr.org/announce

10. http://mvgroup.org:2710/announce

11. udp://mgtracker.org:6969/announce

12. udp://asnet.pw:2710/announce

13. udp://tracker.mgtracker.org:2710/announce

14. udp://tracker4.piratux.com:6969/announce

15. udp://tracker.trackerfix.com:80/announce

16. udp://tracker.pomf.se:80/announce

17. udp://torrent.gresille.org:80/announce

18. udp://p4p.arenabg.com:1337

19. udp://ipv4.tracker.harry.lu:80/announce

20. udp://inferno.demonoid.ooo:3389/announce

21. udp://tracker.blackunicorn.xyz:6969/announce

22. udp://tracker.internetwarriors.net:1337/announce

23. udp://tracker.openbittorrent.com:80/announce

24. udp://eddie4.nl:6969/announce

25. udp://tracker.leechers-paradise.org:6969/announce

26. udp://tracker.opentrackr.org:1337/announce

27. udp://tracker.zer0day.to:1337/announce

28. udp://p4p.arenabg.ch:1337/announce

29. udp://tracker.coppersurfer.tk:6969/announce

30. udp://9.rarbg.to:2710/announce

31. udp://9.rarbg.com:2710/announce

32. udp://9.rarbg.me:2710/announce

33. udp://open.demonii.com:1337

34. udp://glotorrents.pw:6969/announce

35. udp://eddie4.nl:6969/announce

36. udp://explodie.org:6969/announce

37. udp://9.rarbg.me:2710/announce

38. udp://9.rarbg.to:2710/announce

39. udp://9.rarbg.com:2710/announce

40. udp://p4p.arenabg.com:1337/announce

41. udp://p4p.arenabg.ch:1337/announce

42. udp://ipv4.tracker.harry.lu:80/announce

43. udp://tracker.zer0day.to:1337/announce

44. udp://tracker.opentrackr.org:1337/announce

45. udp://tracker.leechers-paradise.org:6969/announce

46. udp://tracker.coppersurfer.tk:6969/announce

47. udp://tracker.ilibr.org:80/announce

48. udp://tracker.ilibr.org:6969/announce

Comments

You must log in to add a comment.

Embed Code

Sharing Widget

Top Movies ( auto generated report )

FILENAME SIZE SEEDS PEERS ADDED UPD
[i] Logan (2017) [1080p] [YTS AG] 2.09 GB 13881 12271 1 day 22 hours
[i] Beauty and the Beast (2017) [1080p] [YTS AG] 1.96 GB 12983 6378 4 days 19 hours
[i] Logan (2017) [720p] [YTS AG] 1014.33 MB 11484 11862 1 day 22 hours
[i] Beauty and the Beast (2017) [720p] [YTS AG] 947.05 MB 9879 5972 4 days 19 hours
[i] Beauty.And.The.Beast.2017.1080p.HDRip.X264.AC3-EVO[EtHD] 3.63 GB 2338 346 6 days 21 hours
[i] The.Fate.Of.The.Furious.2017.HC,HDRip.XViD.AC3-ETRG 1.41 GB 1028 436 6 days 17 hours
[i] Free.Fire.2016.1080p.WEB-DL.DD5.1.H264-FGT 3.11 GB 3018 1703 1 day 5 hours
[i] The.Fate.of.the.Furious.2017.720p.KORSUB.HDRip.x264.AAC2.0-STUTTERSHIT 3.51 GB 1051 464 6 days 11 hours
[i] Kill'em All (2017) [720p] [YTS AG] 711.76 MB 1650 940 3 days 17 hours
[i] King Arthur and the Knights of the Round Table (2017) [720p] [YTS AG] 664.06 MB 1338 885 2 days 1 day