Mistress America (2015).H264.Italian.English.Ac3.5.1.sub.ita.eng.iCV-MIRCrew

DOWNLOAD TORRENT

Posted by robbyrs •2723 on August 23, 2016 in Movies » Comedy , verified torrent

Size: 1.26 GB , Seeds: 25 , Peers: 9 ( Updated October 26, 2016 - Refresh )

* Download via Magnet Link * To download files you need a Bittorrent Client ,

Scrape History ( seeds + peers )

Internal Files

Mistress America (2015).H264.eng.ita.sub.eng.iCV-MIRCrew.mkv
Mistress America (2015).H264.eng.ita.sub.eng.iCV-MIRCrew.mkv   1.26 GB

Hash Code

5fe80417318d09aed328d4a6f3ce5076b77797c0

Description

Mistress America (2015).H264.Italian.English.Ac3.5.1.sub.eng.iCV-MIRCrew



SCREENSHOT
NO FOUND ONLY ORIGINAL RELEASE

My release is always in double track audio italian and Original audio
for select it use VLC or dvd player home
not use wmp

Mistress America (2015)

SCREENSHOT


SCREENSHOT

SCREENSHOT



DATA USCITA: 14 aprile 2016
GENERE: Commedia
ANNO: 2015
REGIA: Noah Baumbach
SCENEGGIATURA: Noah Baumbach, Greta Gerwig
FOTOGRAFIA: Sam Levy
MONTAGGIO: Jennifer Lame
PRODUZIONE: RT Features
DISTRIBUZIONE: 20th Century Fox
PAESE: USA
DURATA: 86 Min

SCREENSHOT

Greta Gerwig, Lola Kirke, Michael Chernus, Cindy Cheung, Joel Garland, Shana Dowdeswell

SCREENSHOT

Nel film Mistress America, contemporanea screwball comedy realizzata da Noah Baumbach e Greta Gerwig, una matricola universitaria a New York si ritrova a fare un corso accelerato sulla vita della metropoli quando diventa amica della sua affascinante futura sorellastra. Per Tracy il primo semestre all'università a Manhattan è una grande delusione. Le lezioni sono noiose, la sua compagna di stanza le è ostile e il ragazzo per cui ha una cotta

SCREENSHOT

Tracy, a lonely college freshman in New York, is rescued from her solitude by her soon-to-be stepsister Brooke, an adventurous gal about town who entangles her in alluringly mad schemes. Mistress America is a comedy about dream-chasing, score-settling, makeshift families, and cat-stealing. .

SCREENSHOT

SCREENSHOT
SCREENSHOT
SCREENSHOT

SCREENSHOT


[spoiler]
General
Unique ID : 332201559487237622082600282934423468386 (0xF9EBB16EED4C4748DDA1506BAAD23962)
Complete name : Mistress America (2015).H264.eng.ita.sub.eng.iCV-MIRCrew.mkv
Format : Matroska
Format version : Version 2
File size : 1.26 GiB
Duration : 1h 24mn
Overall bit rate : 2 139 Kbps
Movie name : Visit www.icv-crew.org
Encoded date : UTC 2016-08-22 09:39:31
Writing application : Lavf54.63.100
Writing library : Lavf54.63.100

Video
ID : 1
Format : AVC
Format/Info : Advanced Video Codec
Format profile : [email protected]
Format settings, CABAC : Yes
Format settings, ReFrames : 2 frames
Codec ID : V_MPEG4/ISO/AVC
Duration : 1h 24mn
Bit rate : 1 250 Kbps
Width : 720 pixels
Height : 384 pixels
Display aspect ratio : 1.859
Original display aspect ratio : 1.860
Frame rate mode : Variable
Frame rate : 23.976 fps
Color space : YUV
Chroma subsampling : 4:2:0
Bit depth : 8 bits
Scan type : Progressive
Bits/(Pixel*Frame) : 0.189
Stream size : 724 MiB (56%)
Writing library : x264 core 130 r2273
Encoding settings : cabac=1 / ref=2 / deblock=1:0:0 / analyse=0x1:0x131 / me=hex / subme=7 / psy=1 / psy_rd=1.00:0.00 / mixed_ref=0 / me_range=16 / chroma_me=1 / trellis=1 / 8x8dct=0 / cqm=0 / deadzone=21,11 / fast_pskip=1 / chroma_qp_offset=-2 / threads=12 / lookahead_threads=2 / sliced_threads=0 / nr=0 / decimate=1 / interlaced=0 / bluray_compat=0 / constrained_intra=0 / bframes=3 / b_pyramid=0 / b_adapt=1 / b_bias=0 / direct=3 / weightb=1 / open_gop=0 / weightp=2 / keyint=230 / keyint_min=23 / scenecut=40 / intra_refresh=0 / rc_lookahead=40 / rc=abr / mbtree=1 / bitrate=1250 / ratetol=1.0 / qcomp=0.60 / qpmin=10 / qpmax=69 / qpstep=4 / vbv_maxrate=24000 / vbv_bufsize=24000 / nal_hrd=none / ip_ratio=1.40 / aq=1:1.00
Language : English
Default : Yes
Forced : No
DURATION : 01:24:18.095000000
NUMBER_OF_FRAMES : 121273
NUMBER_OF_BYTES : 2556673976
_STATISTICS_WRITING_APP : no_variable_data
_STATISTICS_WRITING_DATE_UTC : 1970-01-01 00:00:00
_STATISTICS_TAGS : BPS DURATION NUMBER_OF_FRAMES NUMBER_OF_BYTES

Audio #1
ID : 2
Format : AC-3
Format/Info : Audio Coding 3
Mode extension : CM (complete main)
Codec ID : A_AC3
Duration : 1h 24mn
Bit rate mode : Constant
Bit rate : 448 Kbps
Channel(s) : 6 channels
Channel positions : Front: L C R, Side: L R, LFE
Sampling rate : 48.0 KHz
Bit depth : 16 bits
Compression mode : Lossy
Stream size : 270 MiB (21%)
Language : Italian
Default : No
Forced : No

Audio #2
ID : 3
Format : AC-3
Format/Info : Audio Coding 3
Mode extension : CM (complete main)
Codec ID : A_AC3
Duration : 1h 24mn
Bit rate mode : Constant
Bit rate : 448 Kbps
Channel(s) : 6 channels
Channel positions : Front: L C R, Side: L R, LFE
Sampling rate : 48.0 KHz
Bit depth : 16 bits
Compression mode : Lossy
Delay relative to video : 1mn 5s
Stream size : 270 MiB (21%)
Language : English
Default : Yes
Forced : No
DURATION : 01:24:18.102000000
NUMBER_OF_FRAMES : 474197
NUMBER_OF_BYTES : 954084364
_STATISTICS_WRITING_APP : no_variable_data
_STATISTICS_WRITING_DATE_UTC : 1970-01-01 00:00:00
_STATISTICS_TAGS : BPS DURATION NUMBER_OF_FRAMES NUMBER_OF_BYTES

Text #1
ID : 4
Format : ASS
Codec ID : S_TEXT/ASS
Codec ID/Info : Advanced Sub Station Alpha
Compression mode : Lossless
Language : English
Default : No
Forced : No
DURATION : 01:23:46.020000000
NUMBER_OF_FRAMES : 2074
NUMBER_OF_BYTES : 63935
_STATISTICS_WRITING_APP : no_variable_data
_STATISTICS_WRITING_DATE_UTC : 1970-01-01 00:00:00
_STATISTICS_TAGS : BPS DURATION NUMBER_OF_FRAMES NUMBER_OF_BYTES

Text #2
ID : 5
Format : ASS
Codec ID : S_TEXT/ASS
Codec ID/Info : Advanced Sub Station Alpha
Compression mode : Lossless
Title : SDH
Language : English
Default : No
Forced : No
DURATION : 01:23:46.020000000
NUMBER_OF_FRAMES : 2127
NUMBER_OF_BYTES : 65917
_STATISTICS_WRITING_APP : no_variable_data
_STATISTICS_WRITING_DATE_UTC : 1970-01-01 00:00:00
_STATISTICS_TAGS : BPS DURATION NUMBER_OF_FRAMES NUMBER_OF_BYTES

Menu
00:00:00.000 : :00:00:00.000
00:05:12.020 : :00:05:12.020
00:09:03.168 : :00:09:03.168
00:12:21.574 : :00:12:21.574
00:15:26.592 : :00:15:26.592
00:18:10.089 : :00:18:10.089
00:20:56.297 : :00:20:56.297
00:24:38.143 : :00:24:38.143
00:27:30.065 : :00:27:30.065
00:30:37.210 : :00:30:37.210
00:32:51.303 : :00:32:51.303
00:36:23.681 : :00:36:23.681
00:39:24.862 : :00:39:24.862
00:42:04.147 : :00:42:04.147
00:45:20.635 : :00:45:20.635
00:48:18.646 : :00:48:18.646
00:51:11.485 : :00:51:11.485
00:54:32.186 : :00:54:32.186
00:58:43.603 : :00:58:43.603
01:03:48.908 : :01:03:48.908
01:06:45.168 : :01:06:45.168
01:11:08.556 : :01:11:08.556
01:15:55.551 : :01:15:55.551
01:22:06.964 : :01:22:06.964



[/spoiler]

Trackers

Refresh Leechers : Updated October 26, 2016

1. udp://tracker.leechers-paradise.org:6969/announce

2. udp://torrent.gresille.org:80/announce

3. udp://tracker.opentrackr.org:1337/announce

4. udp://tracker.coppersurfer.tk:6969/announce

5. udp://glotorrents.pw:6969/announce

6. udp://tracker.pomf.se:80/announce

7. udp://tracker.openbittorrent.com:80/announce

8. udp://tracker.coppersurfer.tk:6969/announce

9. udp://poloniumsurfer.tk:6969/announce

10. udp://9.rarbg.com:2710/announce

11. udp://9.rarbg.to:2710/announce

12. udp://9.rarbg.me:2710/announce

13. http://www.wareztorrent.com/announce

14. http://www.wareztorrent.com/announce

15. http://tracker.tfile.me/announce

16. http://tracker.dutchtracking.nl/announce

17. http://tracker.dutchtracking.nl:80/announce

18. http://tracker.tfile.me:80/announce

Comments

You must log in to add a comment.

Embed Code

Sharing Widget

Top Movies ( auto generated report )

FILENAME SIZE SEEDS PEERS ADDED UPD
[i] Kong Skull Island (2017) [1080p] [YTS AG] 1.81 GB 11002 4730 4 days 2 days
[i] Kong- Skull Island (2017) [720p] [YTS AG] 883.55 MB 9677 9528 4 days 3 days
[i] King.Arthur.Legend.of.the.Sword.2017.1080p.KORSUB.HDRip.x264.AAC2.0-STUTTERSHIT[rarbg] 3.94 GB 8296 4447 4 days 1 day
[i] King.Arthur.Legend.of.the.Sword.2017.KORSUB.HDRip.x264-STUTTERSHIT[rarbg] 1.03 GB 4512 2499 4 days 3 days
[i] Extortion (2017) [720p] [YTS AG] 807.26 MB 1988 1178 2 days 1 day
[i] Smurfs.The.Lost.Village.2017.1080p.WEB-DL.DD5.1.H264-FGT- rarbg.to .torrent 3.44 GB 1312 236 1 day 5 hours
[i] King.Arthur.Legend.of.the.Sword.2017.720p.HC.HDRip.X264.AC3-EVO 2.81 GB 1618 1103 4 days 3 days
[i] Transformers The Last Knight 2017 HDTS x264 KOSHARA 1.37 GB 1578 381 5 days 1 day
[i] Extortion (2017) [1080p] [YTS AG] 1.67 GB 1554 884 2 days 1 day
[i] Moontrap Target Earth (2017) [720p] [YTS AG] 627.54 MB 1505 862 4 days 3 days