Warning! Use a VPN When Downloading Torrents!
Your IP Address is . Location is
Avoid LAWSUITS and FINES! Hide your IP ADDRESS with a VPN!
We strongly recommend using Trust.Zone VPN to anonymize your torrenting. It's FREE!
Get VPN Now for FREE!

MOHENJO DARO (2016) x264 DesiSCR Rip AAC -DDR

DOWNLOAD TORRENT

Posted on August 13, 2016 in Movies » Adventure , verified torrent

Size: 1.38 GB , Seeds: 435 , Peers: 113 ( Updated September 16, 2016 - Refresh )

* Download via Magnet Link * To download files you need a Bittorrent Client ,

Scrape History ( seeds + peers )

Internal Files

MOHENJO DARO (2016) x264 DesiSCR Rip AAC -DDR
MOHENJO DARO (2016) x264 DesiSCR Rip AAC -DDR.mkv   1.37 GB
Sample - MOHENJO DARO (2016) x264 DesiSCR Rip AAC -DDR.mkv   7.32 MB
A DDR Release !!.txt   287 Byte

Hash Code

563131b55add8c6e6b1e4d9675179638d3fc5a68

Description

SCREENSHOT



- BollywooD MoviE -

**- MOHENJO DARO -**

- 2016 -

** ~2CD DesiSCR Rip / x264 / AAC **



- -





SCREENSHOT



~* SCREENSHOTS *~

SCREENSHOT

SCREENSHOT

SCREENSHOT

SCREENSHOT

SCREENSHOT

SCREENSHOT

SCREENSHOT

SCREENSHOT

SCREENSHOT

SCREENSHOT

SCREENSHOT

SCREENSHOT

SCREENSHOT

SCREENSHOT

SCREENSHOT

SCREENSHOT

SCREENSHOT





[ Specs ]

General

Source = DesiSCR @ ICTV

Format : Matroska

File size : 1.37 GiB

Duration : 2h 34mn

Overall bit rate : 1 263 Kbps

Encoded date : UTC 2016-08-13 01:21:06



Video

Format : AVC

Format/Info : Advanced Video Codec

Format profile : [email protected]/* */

Format settings, CABAC : Yes

Format settings, ReFrames : 8 frames

Codec ID : V_MPEG4/ISO/AVC

Duration : 2h 34mn

Bit rate : 1 131 Kbps

Width : 720 pixels

Height : 304 pixels

Display aspect ratio : 2.35:1

Frame rate mode : Constant

Frame rate : 25.000 fps

Color space : YUV

Chroma subsampling : 4:2:0

Bit depth : 8 bits

Scan type : Progressive

Bits/(Pixel*Frame) : 0.207

Stream size : 1.23 GiB (90%)







Audio

Format : AAC

Format/Info : Advanced Audio Codec

Format profile : LC

Codec ID : A_AAC

Duration : 2h 34mn

Bit rate : 128 Kbps

Channel(s) : 2 channels

Channel positions : Front: L R

Sampling rate : 48.0 KHz

Frame rate : 46.875 fps (1024 spf)

Compression mode : Lossy

Delay relative to video : 9ms

Stream size : 142 MiB (10%)

Default : Yes

Forced : No





Chapters: None on source

SAMPLE : Included



A DDR Exclusive Release...!



Torrent location

http://extratorrent4-cc.unblocked.lol/torrent/5104637/MOHENJO+DARO+%282016%29+x264+DesiSCR+Rip+AAC+-DDR.html

Trackers

Refresh Leechers : Updated September 16, 2016

1. udp://tracker.coppersurfer.tk:6969/announce

2. udp://thetracker.org:80/announce

3. udp://tracker.coppersurfer.tk:6969/announce

4. udp://tracker.leechers-paradise.org:6969/announce

5. udp://eddie4.nl:6969/announce

6. udp://zer0day.ch:1337/announce

7. udp://tracker.sktorrent.net:6969/announce

8. udp://9.rarbg.me:2710/announce

9. udp://9.rarbg.to:2710/announce

10. udp://torrent.gresille.org:80/announce

11. udp://tracker.aletorrenty.pl:2710/announce

12. udp://tracker.piratepublic.com:1337/announce

13. udp://tracker.opentrackr.org:1337/announce

14. udp://explodie.org:6969/announce

15. udp://p4p.arenabg.ch:1337/announce

Comments

You must log in to add a comment.

Embed Code

Sharing Widget

Related torrents

FILENAME SIZE SEEDS PEERS ADDED UPD
[i] MOHENJO DARO (2016) 576p DesiSCR x264 AC3 [DDR] 2.26 GB 112 61 7 months 6 months
[i] Mohenjo Daro 2016 Hindi 1CD DesiSCR Rip x264 MP3 - LOKI - M2Tv 710.3 MB 35 11 7 months 7 months
[i] Mohenjo Daro 2016 Hindi 576p DesiSCR Rip x264 AAC - LOKI - M2Tv
posted by Lokioddin in Movies - Drama
1.35 GB 28 11 7 months 7 months
[i] Mohenjo Daro (2016) - 1CD - DesiSCR-Rip - (New Source) - Hindi - x264 - MP3 - Mafiaking - M2Tv 703.3 MB 27 7 7 months 6 months
[i] Mohenjo Daro (2016) 1-3 DesiSCR Rip - x264 AC3 5.1 - DUS 8th Anniversary 1.47 GB 12 5 7 months 6 months
[i] Mohenjo Daro 2016 Hindi 1CD V2 DesiSCR Rip x264 MP3 - LOKI - M2Tv
posted by Lokioddin in Movies - Drama
707.73 MB 11 11 7 months 7 months
[i] Mohenjo Daro (2016) - 1CD - DesiSCR-Rip - Hindi - x264 - MP3 - Mafiaking - M2Tv 699.3 MB 9 5 7 months 6 months
[i] Mohenjo Daro (2016) 720p DesiSCR Rip - x264 AC3 5.1 - DUS 8th Anniversary 2.46 GB 9 3 7 months 6 months

Top Movies ( auto generated report )

FILENAME SIZE SEEDS PEERS ADDED UPD
[i] Monster Trucks (2016) [720p] [YTS AG] 770.79 MB 4672 3999 1 day 11 hours
[i] Monster Trucks (2016) [1080p] [YTS AG] 1.59 GB 3738 3168 1 day 11 hours
[i] Monster.Trucks.2016.480p.HDRip.XViD.AC3-ETRG 1.39 GB 3667 2874 2 days 2 hours
[i] Warrior s Gate (2016) [720p] [YTS AG] 796.33 MB 2850 2297 1 day 12 hours
[i] The.Rift.2016.HDRip.XViD-ETRG 710.9 MB 2495 1636 3 days 2 days
[i] Warrior s Gate (2016) [1080p] [YTS AG] 1.64 GB 2268 1573 1 day 12 hours
[i] The.Bye.Bye.Man.2017.HDRip.XViD-ETRG 707.1 MB 2108 1587 2 days 1 day
[i] Monster.Trucks.2016.1080p.WEB-DL.DD5.1.H264-FGT 3.61 GB 1299 610 2 days 2 hours
[i] Vengeance- A Love Story (2017) [720p] [YTS AG] 721.47 MB 1854 883 2 days 8 hours
[i] The Bye Bye Man (2017) [720p] [YTS AG] 740.34 MB 1753 1346 1 day 11 hours