Bit Torrent Scene a public file sharing platform Home Categories Blog About

advertising ( remove )

MOHENJO DARO (2016) x264 DesiSCR Rip AAC -DDR

DOWNLOAD TORRENT

Posted on August 13, 2016 in Movies » Adventure , verified torrent

Size: 1.38 GB , Seeds: 1159 , Peers: 471 ( Updated August 27, 2016 - Refresh )

* Download via Magnet Link * To download files you need a Bittorrent Client ,

advertising ( remove )

External Info

Trailer | Wikipedia | Other Info

Internal Files

MOHENJO DARO (2016) x264 DesiSCR Rip AAC -DDR
MOHENJO DARO (2016) x264 DesiSCR Rip AAC -DDR.mkv   1.37 GB
Sample - MOHENJO DARO (2016) x264 DesiSCR Rip AAC -DDR.mkv   7.32 MB
A DDR Release !!.txt   287 Byte

Hash Code

563131b55add8c6e6b1e4d9675179638d3fc5a68

Description

SCREENSHOT



- BollywooD MoviE -

**- MOHENJO DARO -**

- 2016 -

** ~2CD DesiSCR Rip / x264 / AAC **



- -





SCREENSHOT



~* SCREENSHOTS *~

SCREENSHOT

SCREENSHOT

SCREENSHOT

SCREENSHOT

SCREENSHOT

SCREENSHOT

SCREENSHOT

SCREENSHOT

SCREENSHOT

SCREENSHOT

SCREENSHOT

SCREENSHOT

SCREENSHOT

SCREENSHOT

SCREENSHOT

SCREENSHOT

SCREENSHOT





[ Specs ]

General

Source = DesiSCR @ ICTV

Format : Matroska

File size : 1.37 GiB

Duration : 2h 34mn

Overall bit rate : 1 263 Kbps

Encoded date : UTC 2016-08-13 01:21:06



Video

Format : AVC

Format/Info : Advanced Video Codec

Format profile : [email protected]/* */

Format settings, CABAC : Yes

Format settings, ReFrames : 8 frames

Codec ID : V_MPEG4/ISO/AVC

Duration : 2h 34mn

Bit rate : 1 131 Kbps

Width : 720 pixels

Height : 304 pixels

Display aspect ratio : 2.35:1

Frame rate mode : Constant

Frame rate : 25.000 fps

Color space : YUV

Chroma subsampling : 4:2:0

Bit depth : 8 bits

Scan type : Progressive

Bits/(Pixel*Frame) : 0.207

Stream size : 1.23 GiB (90%)







Audio

Format : AAC

Format/Info : Advanced Audio Codec

Format profile : LC

Codec ID : A_AAC

Duration : 2h 34mn

Bit rate : 128 Kbps

Channel(s) : 2 channels

Channel positions : Front: L R

Sampling rate : 48.0 KHz

Frame rate : 46.875 fps (1024 spf)

Compression mode : Lossy

Delay relative to video : 9ms

Stream size : 142 MiB (10%)

Default : Yes

Forced : No





Chapters: None on source

SAMPLE : Included



A DDR Exclusive Release...!



Torrent location

https://peertorrent.com/torrent/5104637/MOHENJO+DARO+%282016%29+x264+DesiSCR+Rip+AAC+-DDR.html

Scrape History ( seeds + peers )

Trackers

Refresh Leechers : Updated August 27, 2016

1. udp://tracker.coppersurfer.tk:6969/announce

2. udp://thetracker.org:80/announce

3. udp://tracker.coppersurfer.tk:6969/announce

4. udp://tracker.leechers-paradise.org:6969/announce

5. udp://eddie4.nl:6969/announce

6. udp://zer0day.ch:1337/announce

7. udp://tracker.sktorrent.net:6969/announce

8. udp://9.rarbg.me:2710/announce

9. udp://9.rarbg.to:2710/announce

10. udp://torrent.gresille.org:80/announce

11. udp://tracker.aletorrenty.pl:2710/announce

12. udp://tracker.piratepublic.com:1337/announce

13. udp://tracker.opentrackr.org:1337/announce

14. udp://explodie.org:6969/announce

15. udp://p4p.arenabg.ch:1337/announce

Comments

You must log in to add a comment.

Embed Code

Sharing Widget

Related torrents

FILENAME SIZE SEEDS PEERS ADDED UPD
[i] MOHENJO DARO (2016) 576p DesiSCR x264 AC3 [DDR] 2.26 GB 593 3059 1 week 1 week
[i] Mohenjo Daro (2016) 720p DesiSCR Rip - x264 AC3 5.1 - DUS 8th Anniversary 2.46 GB 84 132 1 week 1 week
[i] Mohenjo Daro (2016) - 1CD - DesiSCR-Rip - (New Source) - Hindi - x264 - MP3 - Mafiaking - M2Tv 703.3 MB 77 83 1 week 1 week
[i] Mohenjo Daro (2016) - 1CD - DesiSCR-Rip - Hindi - x264 - MP3 - Mafiaking - M2Tv 699.3 MB 36 12 2 weeks 1 day
[i] Mohenjo Daro 2016 Hindi 1CD DesiSCR Rip x264 MP3 - LOKI - M2Tv 710.3 MB 35 11 2 weeks 1 day
[i] Mohenjo Daro 2016 Hindi 576p DesiSCR Rip x264 AAC - LOKI - M2Tv
posted by Lokioddin in Movies - Drama
1.35 GB 28 11 2 weeks 1 week
[i] Mohenjo Daro (2016) 1-3 DesiSCR Rip - x264 AC3 5.1 - DUS 8th Anniversary 1.47 GB 27 7 2 weeks 11 hours
[i] Mohenjo Daro 2016 Hindi 1CD V2 DesiSCR Rip x264 MP3 - LOKI - M2Tv
posted by Lokioddin in Movies - Drama
707.73 MB 11 11 2 weeks 1 week

Top Movies ( auto generated report )

FILENAME SIZE SEEDS PEERS ADDED UPD
[i] Now.You.See.Me.2.2016.1080p.BluRay.x264.AC3-JYK 2.93 GB 8132 5852 1 day 23 hours
[i] Blood.Father.2016.HDRip.XViD-ETRG 711.3 MB 7851 3968 2 days 14 hours
[i] The Conjuring 2 (2016) 720p BluRay - 1.2GB - ShAaNiG 1.2 GB 7125 5490 1 day 15 hours
[i] Jason.Bourne.720p.HDTC.X264-NUKU
Movies - Action , Quality: Audio 8/10 - Video 8/10
2.49 GB 8020 6984 4 hours 2 hours
[i] Jason Bourne (2016) 720p HDTC 850MB - MkvCage 904.3 MB 4312 2138 1 day 11 hours
[i] Blood.Father.2016.720p.WEBRip.x264.AAC-ETRG 662.3 MB 4159 2580 1 day 5 hours
[i] War Dogs 2016 HD-TS x264-CPG 2.1 GB 3948 3105 1 day 4 hours
[i] The.Conjuring.2.2016.720p.BRRip.x264.AAC-ETRG 1004.3 MB 3885 3190 1 day 5 hours
[i] Our.Kind.of.Traitor.2016.HDRip.XviD.AC3-EVO 1.41 GB 3922 4367 4 hours 2 hours
[i] Genius.2016.HDRip.XviD.AC3-EVO 1.39 GB 2250 1125 4 days 3 days
advertising ( remove )