MOHENJO DARO (2016) x264 DesiSCR Rip AAC -DDR

DOWNLOAD TORRENT

Posted on August 13, 2016 in Movies » Adventure , verified torrent

Size: 1.38 GB , Seeds: 435 , Peers: 113 ( Updated September 16, 2016 - Refresh )

* Download via Magnet Link * To download files you need a Bittorrent Client ,

Scrape History ( seeds + peers )

Internal Files

MOHENJO DARO (2016) x264 DesiSCR Rip AAC -DDR
MOHENJO DARO (2016) x264 DesiSCR Rip AAC -DDR.mkv   1.37 GB
Sample - MOHENJO DARO (2016) x264 DesiSCR Rip AAC -DDR.mkv   7.32 MB
A DDR Release !!.txt   287 Byte

Hash Code

563131b55add8c6e6b1e4d9675179638d3fc5a68

Description

SCREENSHOT



- BollywooD MoviE -

**- MOHENJO DARO -**

- 2016 -

** ~2CD DesiSCR Rip / x264 / AAC **



- -





SCREENSHOT



~* SCREENSHOTS *~

SCREENSHOT

SCREENSHOT

SCREENSHOT

SCREENSHOT

SCREENSHOT

SCREENSHOT

SCREENSHOT

SCREENSHOT

SCREENSHOT

SCREENSHOT

SCREENSHOT

SCREENSHOT

SCREENSHOT

SCREENSHOT

SCREENSHOT

SCREENSHOT

SCREENSHOT





[ Specs ]

General

Source = DesiSCR @ ICTV

Format : Matroska

File size : 1.37 GiB

Duration : 2h 34mn

Overall bit rate : 1 263 Kbps

Encoded date : UTC 2016-08-13 01:21:06



Video

Format : AVC

Format/Info : Advanced Video Codec

Format profile : [email protected]/* */

Format settings, CABAC : Yes

Format settings, ReFrames : 8 frames

Codec ID : V_MPEG4/ISO/AVC

Duration : 2h 34mn

Bit rate : 1 131 Kbps

Width : 720 pixels

Height : 304 pixels

Display aspect ratio : 2.35:1

Frame rate mode : Constant

Frame rate : 25.000 fps

Color space : YUV

Chroma subsampling : 4:2:0

Bit depth : 8 bits

Scan type : Progressive

Bits/(Pixel*Frame) : 0.207

Stream size : 1.23 GiB (90%)







Audio

Format : AAC

Format/Info : Advanced Audio Codec

Format profile : LC

Codec ID : A_AAC

Duration : 2h 34mn

Bit rate : 128 Kbps

Channel(s) : 2 channels

Channel positions : Front: L R

Sampling rate : 48.0 KHz

Frame rate : 46.875 fps (1024 spf)

Compression mode : Lossy

Delay relative to video : 9ms

Stream size : 142 MiB (10%)

Default : Yes

Forced : No





Chapters: None on source

SAMPLE : Included



A DDR Exclusive Release...!



Torrent location

http://extra-to.pbproxy.red/torrent/5104637/MOHENJO+DARO+%282016%29+x264+DesiSCR+Rip+AAC+-DDR.html

Trackers

Refresh Leechers : Updated September 16, 2016

1. udp://tracker.coppersurfer.tk:6969/announce

2. udp://thetracker.org:80/announce

3. udp://tracker.coppersurfer.tk:6969/announce

4. udp://tracker.leechers-paradise.org:6969/announce

5. udp://eddie4.nl:6969/announce

6. udp://zer0day.ch:1337/announce

7. udp://tracker.sktorrent.net:6969/announce

8. udp://9.rarbg.me:2710/announce

9. udp://9.rarbg.to:2710/announce

10. udp://torrent.gresille.org:80/announce

11. udp://tracker.aletorrenty.pl:2710/announce

12. udp://tracker.piratepublic.com:1337/announce

13. udp://tracker.opentrackr.org:1337/announce

14. udp://explodie.org:6969/announce

15. udp://p4p.arenabg.ch:1337/announce

Comments

You must log in to add a comment.

Embed Code

Sharing Widget

Related torrents

FILENAME SIZE SEEDS PEERS ADDED UPD
[i] MOHENJO DARO (2016) 576p DesiSCR x264 AC3 [DDR] 2.26 GB 112 61 9 months 8 months
[i] Mohenjo Daro 2016 Hindi 1CD DesiSCR Rip x264 MP3 - LOKI - M2Tv 710.3 MB 35 11 9 months 8 months
[i] Mohenjo Daro 2016 Hindi 576p DesiSCR Rip x264 AAC - LOKI - M2Tv
posted by Lokioddin in Movies - Drama
1.35 GB 28 11 9 months 9 months
[i] Mohenjo Daro (2016) - 1CD - DesiSCR-Rip - (New Source) - Hindi - x264 - MP3 - Mafiaking - M2Tv 703.3 MB 27 7 9 months 8 months
[i] Mohenjo Daro (2016) 1-3 DesiSCR Rip - x264 AC3 5.1 - DUS 8th Anniversary 1.47 GB 12 5 9 months 8 months
[i] Mohenjo Daro 2016 Hindi 1CD V2 DesiSCR Rip x264 MP3 - LOKI - M2Tv
posted by Lokioddin in Movies - Drama
707.73 MB 11 11 9 months 9 months
[i] Mohenjo Daro (2016) - 1CD - DesiSCR-Rip - Hindi - x264 - MP3 - Mafiaking - M2Tv 699.3 MB 9 5 9 months 8 months
[i] Mohenjo Daro (2016) 720p DesiSCR Rip - x264 AC3 5.1 - DUS 8th Anniversary 2.46 GB 9 3 9 months 8 months

Top Movies ( auto generated report )

FILENAME SIZE SEEDS PEERS ADDED UPD
[i] Logan (2017) [1080p] [YTS AG] 2.09 GB 13881 12271 1 day 7 hours
[i] Beauty and the Beast (2017) [1080p] [YTS AG] 1.96 GB 12983 6378 4 days 4 hours
[i] Logan (2017) [720p] [YTS AG] 1014.33 MB 11484 11862 1 day 7 hours
[i] Beauty and the Beast (2017) [720p] [YTS AG] 947.05 MB 9879 5972 4 days 3 hours
[i] Beauty.And.The.Beast.2017.1080p.HDRip.X264.AC3-EVO[EtHD] 3.63 GB 2338 346 6 days 5 hours
[i] The.Fate.Of.The.Furious.2017.HC,HDRip.XViD.AC3-ETRG 1.41 GB 1028 436 6 days 1 hour
[i] Free.Fire.2016.1080p.WEB-DL.DD5.1.H264-FGT 3.11 GB 1640 1928 12 hours 10 hours
[i] The.Fate.of.the.Furious.2017.720p.KORSUB.HDRip.x264.AAC2.0-STUTTERSHIT 3.51 GB 1200 681 5 days 1 hour
[i] Kill'em All (2017) [720p] [YTS AG] 711.76 MB 1650 940 3 days 1 hour
[i] King Arthur and the Knights of the Round Table (2017) [720p] [YTS AG] 664.06 MB 1338 885 1 day 17 hours