Bit Torrent Scene a public file sharing platform Home Categories Blog About

advertising ( remove )

Mr Holmes - Il Mistero Del Caso Irrisolto (2015).H264.Italian.English.Ac3.5.1.sub.ita.eng.iCV-MIRCrew

DOWNLOAD TORRENT

Posted by robbyrs •2582 on August 7, 2016 in Movies » Thriller , verified torrent

Size: 1.47 GB , Seeds: 159 , Peers: 50 ( Updated August 13, 2016 - Refresh )

* Download via Magnet Link * To download files you need a Bittorrent Client ,

advertising ( remove )

External Info

Trailer | Wikipedia | Other Info

Internal Files

Mr Holmes Il Mistero Del Caso Irrisolto (2015).H264.ita.eng.sub.ita.eng.iCV-MIRCrew.mkv
Mr Holmes Il Mistero Del Caso Irrisolto (2015).H264.ita.eng.sub.ita.eng.iCV-MIRCrew.mkv   1.47 GB

Hash Code

53765540287ac71bc6e8657969af14b3434455b1

Description

Mr Holmes - Il Mistero Del Caso Irrisolto (2015).H264.Italian.English.Ac3.5.1.sub.ita.eng.iCV-MIRCrew



SCREENSHOT
NO FOUND ONLY ORIGINAL RELEASE

My release is always in double track audio italian and Original audio
for select it use VLC or dvd player home
not use wmp

Mr Holmes - Il Mistero Del Caso Irrisolto (2015)

SCREENSHOT

SCREENSHOT

SCREENSHOT

Titolo originale Mr. Holmes
Lingua originale inglese
Paese di produzione Regno Unito, USA
Anno 2015
Durata 104 minuti
Rapporto 2,39:1
Genere drammatico, poliziesco, giallo, noir
Regia Bill Condon
Soggetto Arthur Conan Doyle (personaggio)
Mitch Cullin (storia)
Sceneggiatura Bill Condon, Jeffrey Hatcher
Produttore Iain Canning, Anne Carey, Emile Sherman
Casa di produzione See-Saw Films, AI-Film, Archer Gray Productions, BBC Films, Icon Productions
Distribuzione (Italia) Videa
Musiche Carter Burwell

SCREENSHOT


Ian McKellen: Sherlock Holmes
Laura Linney: Mrs. Munro
Milo Parker: Roger Munro
Hattie Morahan: Ann Kelmot
Hiroyuki Sanada: Matsuda Umezaki
Patrick Kennedy: Thomas Kelmot
Roger Allam: Dott. Barrie
Phil Davis: isp. Gilbert
Frances de la Tour: Madame Schirmer
Nicholas Rowe: "Matinee Sherlock"
Frances Barber: "Matinee Madame Schirmer"
John Sessions: Mycroft Holmes
Charles Maddox: Oswald
Sam Coulson: "Matinee Kelmot"


SCREENSHOT

Nel 1947, Sherlock Holmes è un uomo di 93 anni, piuttosto acciaccato, che ha da tempo lasciato l'investigazione per ritirarsi nel Sussex in una piccola casa di campagna dove vive con la governante Mrs. Munro e suo figlio Roger. Non contento dalla versione pubblicata da Watson del suo ultimo caso..............

SCREENSHOT

An aged, retired Sherlock Holmes deals with early dementia as he tries to remember both his final case and a mysterious woman whose memory haunts him. He also befriends a fan, the young son of his housekeeper, who wants him to work again. ...............

SCREENSHOT

SCREENSHOT
SCREENSHOT
SCREENSHOT
SCREENSHOT


SCREENSHOT


[spoiler]
General
Unique ID : 193245096379744105077059910972573986996 (0x9161A6DA8DE9997D90BDC329571FB0B4)
Complete name Mr Holmes Il Mistero Del Caso Irrisolto (2015).H264.ita.eng.sub.ita.eng.iCV-MIRCrew.mkv
Format : Matroska
Format version : Version 2
File size : 1.47 GiB
Duration : 1h 39mn
Overall bit rate : 2 112 Kbps
Movie name : Mr Holmes Il Mistero Del Caso Irrisolto (2015).Title1
Encoded date : UTC 2016-08-04 18:59:32
Writing application : DVDFab 9.1.5.7
Writing library : libebml v0.7.8 + libmatroska v0.8.1

Video
ID : 1
Format : AVC
Format/Info : Advanced Video Codec
Format profile : [email protected]
Format settings, CABAC : Yes
Format settings, ReFrames : 2 frames
Codec ID : V_MPEG4/ISO/AVC
Duration : 1h 39mn
Bit rate : 1 174 Kbps
Width : 720 pixels
Height : 300 pixels
Display aspect ratio : 2.40:1
Frame rate : 25.000 fps
Color space : YUV
Chroma subsampling : 4:2:0
Bit depth : 8 bits
Scan type : Progressive
Bits/(Pixel*Frame) : 0.217
Stream size : 837 MiB (56%)
Writing library : x264 core
Default : Yes
Forced : No
Color primaries : BT.601-6 525, BT.1358 525, BT.1700 NTSC, SMPTE 170M
Transfer characteristics : BT.709-5, BT.1361
Matrix coefficients : BT.601-6 525, BT.1358 525, BT.1700 NTSC, SMPTE 170M

Audio #1
ID : 2
Format : AC-3
Format/Info : Audio Coding 3
Mode extension : CM (complete main)
Codec ID : A_AC3
Duration : 1h 39mn
Bit rate mode : Constant
Bit rate : 448 Kbps
Channel(s) : 6 channels
Channel positions : Front: L C R, Side: L R, LFE
Sampling rate : 48.0 KHz
Bit depth : 16 bits
Compression mode : Lossy
Stream size : 320 MiB (21%)
Language : Italian
Default : Yes
Forced : No

Audio #2
ID : 3
Format : AC-3
Format/Info : Audio Coding 3
Mode extension : CM (complete main)
Codec ID : A_AC3
Duration : 1h 39mn
Bit rate mode : Constant
Bit rate : 448 Kbps
Channel(s) : 6 channels
Channel positions : Front: L C R, Side: L R, LFE
Sampling rate : 48.0 KHz
Bit depth : 16 bits
Compression mode : Lossy
Stream size : 320 MiB (21%)
Language : English
Default : No
Forced : No

Text #1
ID : 4
Format : VobSub
Codec ID : S_VOBSUB
Codec ID/Info : The same subtitle format used on DVDs
Language : Italian
Default : Yes
Forced : No

Text #2
ID : 5
Format : VobSub
Codec ID : S_VOBSUB
Codec ID/Info : The same subtitle format used on DVDs
Language : Italian
Default : No
Forced : No

Text #3
ID : 6
Format : VobSub
Codec ID : S_VOBSUB
Codec ID/Info : The same subtitle format used on DVDs
Language : English
Default : No
Forced : No

Menu
00:00:00.000 : en:(01)00:00:00:000
00:03:18.280 : en:(02)00:03:18:280
00:07:26.440 : en:(03)00:07:26:440
00:12:28.840 : en:(04)00:12:28:840
00:16:41.800 : en:(05)00:16:41:800
00:22:10.120 : en:(06)00:22:10:120
00:29:49.480 : en:(07)00:29:49:480
00:38:12.520 : en:(08)00:38:12:520
00:43:39.400 : en:(09)00:43:39:400
00:52:13.000 : en:(10)00:52:13:000
00:57:33.640 : en:(11)00:57:33:640
01:01:27.400 : en:(12)01:01:27:400
01:11:18.760 : en:(13)01:11:18:760
01:21:12.520 : en:(14)01:21:12:520
01:28:25.480 : en:(15)01:28:25:480
01:35:55.240 : en:(16)01:35:55:240
01:39:45.160 : en:(17)01:39:45:160




[/spoiler]

Scrape History ( seeds + peers )

Trackers

Refresh Leechers : Updated August 13, 2016

1. udp://tracker.leechers-paradise.org:6969/announce

2. udp://torrent.gresille.org:80/announce

3. udp://tracker.opentrackr.org:1337/announce

4. udp://tracker.coppersurfer.tk:6969/announce

5. udp://glotorrents.pw:6969/announce

6. udp://tracker.pomf.se:80/announce

7. udp://tracker.openbittorrent.com:80/announce

8. udp://tracker.coppersurfer.tk:6969/announce

9. udp://poloniumsurfer.tk:6969/announce

10. udp://9.rarbg.com:2710/announce

11. udp://9.rarbg.to:2710/announce

12. udp://9.rarbg.me:2710/announce

Comments

You must log in to add a comment.

Embed Code

Sharing Widget

Related torrents

FILENAME SIZE SEEDS PEERS ADDED UPD
[i] Il Taccuino di Sherlock Holmes S03e03 - (J.Brett), [DivX - Ita Mp3]Il Mistero Di Boscombe Valley TnTVillage 486.82 MB 3 1 5 years 7 months
[i] Sherlock Holmes e il mistero del crocifero di sangue [XviD - Ita Ac3] [TNT Village] 1.37 GB 1 3 5 years 8 months

Top Movies ( auto generated report )

FILENAME SIZE SEEDS PEERS ADDED UPD
[i] Now.You.See.Me.2.2016.1080p.BluRay.x264.AC3-JYK 2.93 GB 8132 5852 2 days 1 day
[i] Blood.Father.2016.HDRip.XViD-ETRG 711.3 MB 7851 3968 2 days 17 hours
[i] The Conjuring 2 (2016) 720p BluRay - 1.2GB - ShAaNiG 1.2 GB 7125 5490 1 day 18 hours
[i] Jason.Bourne.720p.HDTC.X264-NUKU
Movies - Action , Quality: Audio 8/10 - Video 8/10
2.49 GB 8020 6984 7 hours 5 hours
[i] Jason Bourne (2016) 720p HDTC 850MB - MkvCage 904.3 MB 4312 2138 1 day 14 hours
[i] Blood.Father.2016.720p.WEBRip.x264.AAC-ETRG 662.3 MB 4159 2580 1 day 8 hours
[i] War Dogs 2016 HD-TS x264-CPG 2.1 GB 3948 3105 1 day 7 hours
[i] The.Conjuring.2.2016.720p.BRRip.x264.AAC-ETRG 1004.3 MB 3885 3190 1 day 8 hours
[i] Our.Kind.of.Traitor.2016.HDRip.XviD.AC3-EVO 1.41 GB 3922 4367 7 hours 5 hours
[i] Genius.2016.HDRip.XviD.AC3-EVO 1.39 GB 2250 1125 4 days 3 days
advertising ( remove )