Only Yesterday - Pioggia di ricordi (1991).BRrip.XviD - Italian Jpn.Ac3.Sub.ita.eng.MIRCrew

DOWNLOAD TORRENT

Posted by robbyrs •2723 on February 21, 2016 in Movies » Animation , verified torrent

Size: 1.7 GB , Seeds: 11 , Peers: 3 ( Updated August 8, 2016 - Refresh )

* Download via Magnet Link * To download files you need a Bittorrent Client ,

Scrape History ( seeds + peers )

Internal Files

Pioggia di ricordi - Only Yesterday (1991).ita.Jpn.sub.ita-MIRCrew
Pioggia di ricordi - Only Yesterday (1991).ita.Jpn.sub.ita-MIRCrew.avi   1.68 GB
Pioggia di ricordi - Only Yesterday (1991).ita.Jpn.sub.ita-MIRCrew.eng.srt   90.38 KB
Pioggia di ricordi - Only Yesterday (1991).ita.Jpn.sub.ita-MIRCrew.idx   7.13 KB
Pioggia di ricordi - Only Yesterday (1991).ita.Jpn.sub.ita-MIRCrew.ita.idx   81.23 KB
Pioggia di ricordi - Only Yesterday (1991).ita.Jpn.sub.ita-MIRCrew.ita.sub   18.53 MB
Pioggia di ricordi - Only Yesterday (1991).ita.Jpn.sub.ita-MIRCrew.srt   316 Byte
Pioggia di ricordi - Only Yesterday (1991).ita.Jpn.sub.ita-MIRCrew.sub   1.47 MB

Hash Code

1ecd06dd5a116b608215f1c3217961fec4688925

Description

Only Yesterday - Pioggia di ricordi (1991).BRrip.XviD - Italian Jpn.Ac3.Sub.ita.eng.MIRCrew




SCREENSHOT

NO FOUND ONLY ORIGINAL RELEASE

My release is always in double track audio italian and Original audio
for select it use VLC or dvd player home
not use wmp


Pioggia di ricordi - Only Yesterday (1991) おもひでぽろぽろ

ENGLISH SUBTITLE INSIDE

SCREENSHOT


SCREENSHOT

SCREENSHOT

Titolo originale おもひでぽろぽろ
Paese di produzione Giappone
Anno 1991
Durata 118 min
Colore colore
Audio sonoro
Genere animazione
Regia Isao Takahata
Soggetto Hotaru Okamoto e Yuko Tone (manga)
Sceneggiatura Isao Takahata
Produttore Toshio Suzuki, Yasuyoshi Tokuma
Produttore esecutivo Hayao Miyazaki
Casa di produzione Studio Ghibli
Storyboard Yoshiyuki Momose
Art director Kazuo Oga
Fotografia Hisao Shiraishi
Montaggio Takeshi Seyama
Musiche Katsu Hoshi
Tema musicale The Rose cantata da Harumi Miyako

SCREENSHOT


Miki Imai: Taeko
Toshirō Yanagiba: Toshio
Yōko Honna: Taeko (da giovane)
Mayumi Iizuka: Tsuneko Tani
Chie Kitagawa: Nonna di Taeko
Yūki Masuda: Hirota


SCREENSHOT

Nel 1982, Taeko è una donna di 27 anni, single, che ha vissuto tutta la sua vita a Tokyo, dove lavora come impiegata di un'azienda. Decide di fare, come l'anno prima, un altro viaggio in campagna, per visitare la famiglia del fratello del cognato e aiutarli nella raccolta del cartamo, fuggendo così alla vita di città. Mentre viaggia di notte in treno verso Yamagata, inizia a ricordare la sua infanzia, della scolaretta che era nel 1966 e del suo intenso desiderio di andare in vacanza come le sue compagne.............

SCREENSHOT

A 27-year-old office worker travels to the countryside while reminiscing about her hood in Tôkyô. ..................

SCREENSHOT
SCREENSHOT
SCREENSHOT


SCREENSHOT


SCREENSHOT


[spoiler]
General
Complete name : Pioggia di ricordi - Only Yesterday (1991).ita.Jpn.sub.ita.eng-MIRCrew.avi
Format : AVI
Format/Info : Audio Video Interleave
File size : 1.68 GiB
Duration : 1h 58mn
Overall bit rate : 2 027 Kbps
Movie name : ENCODED by.WWWilcorsaroverde.org
Writing application : VirtualDubMod 1.5.10.2 (build 2540/release)
Writing library : VirtualDubMod build 2540/release

Video
ID : 0
Format : MPEG-4 Visual
Format profile : [email protected]
Format settings, BVOP : No
Format settings, QPel : No
Format settings, GMC : No warppoints
Format settings, Matrix : Default (H.263)
Codec ID : XVID
Codec ID/Hint : XviD
Duration : 1h 58mn
Bit rate : 1 501 Kbps
Width : 720 pixels
Height : 388 pixels
Display aspect ratio : 16:9
Frame rate : 24.000 fps
Color space : YUV
Chroma subsampling : 4:2:0
Bit depth : 8 bits
Scan type : Progressive
Compression mode : Lossy
Bits/(Pixel*Frame) : 0.224
Stream size : 1.24 GiB (74%)
Writing library : XviD 64

Audio #1
ID : 1
Format : AC-3
Format/Info : Audio Coding 3
Mode extension : CM (complete main)
Codec ID : 2000
Duration : 1h 58mn
Bit rate mode : Constant
Bit rate : 256 Kbps
Channel(s) : 2 channels
Channel positions : Front: L R
Sampling rate : 48.0 KHz
Bit depth : 16 bits
Compression mode : Lossy
Stream size : 217 MiB (13%)
Alignment : Split accross interleaves
Interleave, duration : 42 ms (1.00 video frame)
Interleave, preload duration : 500 ms

Audio #2
ID : 2
Format : AC-3
Format/Info : Audio Coding 3
Mode extension : CM (complete main)
Codec ID : 2000
Duration : 1h 58mn
Bit rate mode : Constant
Bit rate : 256 Kbps
Channel(s) : 2 channels
Channel positions : Front: L R
Sampling rate : 48.0 KHz
Bit depth : 16 bits
Compression mode : Lossy
Stream size : 217 MiB (13%)
Alignment : Split accross interleaves
Interleave, duration : 42 ms (1.00 video frame)
Interleave, preload duration : 500 ms



[/spoiler]

Trackers

Refresh Leechers : Updated August 8, 2016

1. udp://torrent.gresille.org:80/announce

2. udp://tracker.coppersurfer.tk:6969/announce

3. udp://tracker.leechers-paradise.org:6969/announce

4. udp://tracker.openbittorrent.com:80/announce

5. udp://tracker.publicbt.com:80/announce

6. udp://glotorrents.pw:6969/announce

7. udp://tracker.pomf.se:80/announce

8. udp://tracker.openbittorrent.com:80/announce

9. udp://tracker.coppersurfer.tk:6969/announce

10. udp://poloniumsurfer.tk:6969/announce

11. udp://9.rarbg.com:2710/announce

12. udp://9.rarbg.to:2710/announce

13. udp://9.rarbg.me:2710/announce

14. udp://tracker.leechers-paradise.org:6969/announce

Comments

You must log in to add a comment.

Embed Code

Sharing Widget

Top Movies ( auto generated report )

FILENAME SIZE SEEDS PEERS ADDED UPD
[i] Logan (2017) [1080p] [YTS AG] 2.09 GB 12543 5989 4 days 1 day
[i] Logan (2017) [720p] [YTS AG] 1014.33 MB 11245 8727 4 days 23 hours
[i] John Wick Chapter 2 (2017) 720p WEB-DL 950MB - MkvCage.torrent 953.3 MB 2471 671 3 days 8 hours
[i] John.Wick.Chapter.2.2017.720p.WEB-DL.XviD.AC3-FGT 3.58 GB 4796 10440 3 days 20 hours
[i] Aftermath (2017) [720p] [YTS AG] 693.73 MB 3337 1985 1 day 11 hours
[i] Aftermath (2017) [1080p] [YTS AG] 1.43 GB 3144 1757 1 day 11 hours
[i] The Assignment (2016) [720p] [YTS AG] 701.82 MB 2784 1711 1 day 11 hours
[i] John.Wick.Chapter.2.2017.WEB-DL.x264-FGT 1.05 GB 2473 905 3 days 1 day
[i] Free.Fire.2016.1080p.WEB-DL.DD5.1.H264-FGT 3.11 GB 2466 973 3 days 1 day
[i] The Assignment (2016) [1080p] [YTS AG] 1.45 GB 2050 1292 1 day 11 hours