Piranha 3DD (2012).H264.Italian.English.Ac3.5.1.sub.Ita.iCV-MIRCrew

DOWNLOAD TORRENT

Posted by robbyrs •2723 on August 28, 2016 in Movies » Horror , verified torrent

Size: 1.22 GB , Seeds: 7 , Peers: 3 ( Updated October 31, 2016 - Refresh )

* Download via Magnet Link * To download files you need a Bittorrent Client ,

Scrape History ( seeds + peers )

Internal Files

Piranha 3DD (2012).H264.ita.eng.sub.ita.iCV-MIRCrew
Piranha 3DD (2012).H264.ita.eng.sub.ita.iCV-MIRCrew.idx   825 Byte
Piranha 3DD (2012).H264.ita.eng.sub.ita.iCV-MIRCrew.ita.idx   32.8 KB
Piranha 3DD (2012).H264.ita.eng.sub.ita.iCV-MIRCrew.ita.sub   3.26 MB
Piranha 3DD (2012).H264.ita.eng.sub.ita.iCV-MIRCrew.mkv   1.22 GB
Piranha 3DD (2012).H264.ita.eng.sub.ita.iCV-MIRCrew.sub   50 KB

Hash Code

006785ade1f900836e146239d5ee166361b16b3f

Description

Piranha 3DD (2012).H264.Italian.English.Ac3.5.1.sub.Ita.iCV-MIRCrew



SCREENSHOT
NO FOUND ONLY ORIGINAL RELEASE

My release is always in double track audio italian and Original audio
for select it use VLC or dvd player home
not use wmp

Piranha 3DD (2012)

SCREENSHOT

SCREENSHOT

SCREENSHOT

Titolo originale Piranha 3DD
Paese di produzione Stati Uniti d'America
Anno 2012
Durata 90 minuti
Genere orrore, commedia
Regia John Gulager
Sceneggiatura Marcus Dunstan, Patrick Melton
Produttore Mark Canton, Joel Soisson, Marc Toberoff
Casa di produzione Dimension Films
Distribuzione (Italia) Koch Media, Midnight Factory

SCREENSHOT


Danielle Panabaker : Maddy
Matt Bush : Barry
Ving Rhames: sceriffo Fallon
Christopher Lloyd: Carl Goodman
Paul Scheer: Andrew Cunnigham
Katrina Bowden: Shelby
Gary Busey: Clayton
David Hasselhoff: Se stesso
Chris Zylka: Kyle
David Koechner: Chet
Cody Kennedy: Bagnino Cody
Jean-Luc Bilodeau: Josh
Meagan Tandy: Ashley
Paul James Jordan: Travis
Clu Gulager: Mo


SCREENSHOT

Nell'anno 180 d.C., il valente generale Massimo Decimo Meridio guida l'esercito romano alla vittoria durante la guerra contro i Marcomanni in Germania, guadagnandosi ancora di piĆ¹ la stima dell'anziano imperatore romano Marco Aurelio, gravemente malato.

SCREENSHOT

Dopo un anno dalle vicende del Lago Victoria due pescatori, Clayton e Mo, scoprono delle uova di Nicocentlus Natteteri nel cadavere di una vacca, ma subito dopo la scoperta le uova si schiudono e i piranha sbranano i due pescatori. In seguito Maddy, la co-proprietaria di un parco acquatico, scopre che il patrigno Chet vuole usare parte del budget per assumere delle spogliarelliste, dimezzando i bagnini. ............

SCREENSHOT

SCREENSHOT

SCREENSHOT SCREENSHOT SCREENSHOT SCREENSHOT

SCREENSHOT


[spoiler]
General
Unique ID : 6931188847511583655593748405939404068 (0x536E5FE893D587FA5F17DEBC434FD24)
Complete name : Piranha 3DD (2012).H264.ita.eng.sub.ita.iCV-MIRCrew.mkv
Format : Matroska
Format version : Version 2
File size : 1.22 GiB
Duration : 1h 23mn
Overall bit rate : 2 098 Kbps
Movie name : Visit www.icv-crew.org
Encoded date : UTC 2016-08-27 19:10:27
Writing application : Lavf54.63.100
Writing library : Lavf54.63.100

Video
ID : 1
Format : AVC
Format/Info : Advanced Video Codec
Format profile : [email protected]
Format settings, CABAC : Yes
Format settings, ReFrames : 2 frames
Codec ID : V_MPEG4/ISO/AVC
Duration : 1h 23mn
Bit rate : 1 200 Kbps
Width : 720 pixels
Height : 404 pixels
Display aspect ratio : 16:9
Frame rate mode : Variable
Frame rate : 23.976 fps
Color space : YUV
Chroma subsampling : 4:2:0
Bit depth : 8 bits
Scan type : Progressive
Bits/(Pixel*Frame) : 0.172
Stream size : 690 MiB (55%)
Title : Piranha 3DD
Writing library : x264 core 130 r2273
Encoding settings : cabac=1 / ref=2 / deblock=1:0:0 / analyse=0x1:0x131 / me=hex / subme=7 / psy=1 / psy_rd=1.00:0.00 / mixed_ref=0 / me_range=16 / chroma_me=1 / trellis=1 / 8x8dct=0 / cqm=0 / deadzone=21,11 / fast_pskip=1 / chroma_qp_offset=-2 / threads=12 / lookahead_threads=2 / sliced_threads=0 / nr=0 / decimate=1 / interlaced=0 / bluray_compat=0 / constrained_intra=0 / bframes=3 / b_pyramid=0 / b_adapt=1 / b_bias=0 / direct=3 / weightb=1 / open_gop=0 / weightp=2 / keyint=230 / keyint_min=23 / scenecut=40 / intra_refresh=0 / rc_lookahead=40 / rc=2pass / mbtree=1 / bitrate=1200 / ratetol=1.0 / qcomp=0.60 / qpmin=10 / qpmax=69 / qpstep=4 / cplxblur=20.0 / qblur=0.5 / vbv_maxrate=24000 / vbv_bufsize=24000 / nal_hrd=none / ip_ratio=1.40 / aq=1:1.00
Language : Italian
Default : Yes
Forced : No
DURATION : 01:23:08.650000000
NUMBER_OF_FRAMES : 119608
NUMBER_OF_BYTES : 7202881116
_STATISTICS_WRITING_APP : mkvmerge v8.2.0 ('World of Adventure') 64bit
_STATISTICS_WRITING_DATE_UTC : 2015-07-27 09:42:41
_STATISTICS_TAGS : BPS DURATION NUMBER_OF_FRAMES NUMBER_OF_BYTES

Audio #1
ID : 2
Format : AC-3
Format/Info : Audio Coding 3
Mode extension : CM (complete main)
Codec ID : A_AC3
Duration : 1h 23mn
Bit rate mode : Constant
Bit rate : 448 Kbps
Channel(s) : 6 channels
Channel positions : Front: L C R, Side: L R, LFE
Sampling rate : 48.0 KHz
Bit depth : 16 bits
Compression mode : Lossy
Delay relative to video : 1mn 5s
Stream size : 266 MiB (21%)
Title : DTS 5.1 1509Kbps
Language : Italian
Default : Yes
Forced : No
DURATION : 01:22:36.022000000
NUMBER_OF_FRAMES : 464627
NUMBER_OF_BYTES : 934829524
_STATISTICS_WRITING_APP : mkvmerge v8.2.0 ('World of Adventure') 64bit
_STATISTICS_WRITING_DATE_UTC : 2015-07-27 09:42:41
_STATISTICS_TAGS : BPS DURATION NUMBER_OF_FRAMES NUMBER_OF_BYTES

Audio #2
ID : 3
Format : AC-3
Format/Info : Audio Coding 3
Mode extension : CM (complete main)
Codec ID : A_AC3
Duration : 1h 23mn
Bit rate mode : Constant
Bit rate : 448 Kbps
Channel(s) : 6 channels
Channel positions : Front: L C R, Side: L R, LFE
Sampling rate : 48.0 KHz
Bit depth : 16 bits
Compression mode : Lossy
Delay relative to video : 1mn 5s
Stream size : 266 MiB (21%)
Title : AC3 5.1 640Kbps
Language : English
Default : No
Forced : No
DURATION : 01:23:08.736000000
NUMBER_OF_FRAMES : 155898
NUMBER_OF_BYTES : 399098880
_STATISTICS_WRITING_APP : mkvmerge v8.2.0 ('World of Adventure') 64bit
_STATISTICS_WRITING_DATE_UTC : 2015-07-27 09:42:41
_STATISTICS_TAGS : BPS DURATION NUMBER_OF_FRAMES NUMBER_OF_BYTES

Menu
00:00:00.000 : :Capitolo 01
00:09:05.670 : :Capitolo 02
00:14:07.138 : :Capitolo 03
00:21:30.623 : :Capitolo 04
00:31:32.557 : :Capitolo 05
00:35:56.946 : :Capitolo 06
00:43:01.746 : :Capitolo 07
00:50:39.578 : :Capitolo 08
00:55:38.335 : :Capitolo 09
01:03:11.955 : :Capitolo 10
01:07:08.066 : :Capitolo 11
01:12:09.992 : :Capitolo 12



[/spoiler]

Trackers

Refresh Leechers : Updated October 31, 2016

1. udp://tracker.leechers-paradise.org:6969/announce

2. udp://torrent.gresille.org:80/announce

3. udp://tracker.opentrackr.org:1337/announce

4. udp://tracker.coppersurfer.tk:6969/announce

5. udp://glotorrents.pw:6969/announce

6. udp://tracker.pomf.se:80/announce

7. udp://tracker.openbittorrent.com:80/announce

8. udp://tracker.coppersurfer.tk:6969/announce

9. udp://poloniumsurfer.tk:6969/announce

10. udp://9.rarbg.com:2710/announce

11. udp://9.rarbg.to:2710/announce

12. udp://9.rarbg.me:2710/announce

13. http://www.wareztorrent.com/announce

14. http://www.wareztorrent.com/announce

15. http://tracker.tfile.me/announce

16. http://tracker.dutchtracking.nl/announce

17. http://tracker.dutchtracking.nl:80/announce

18. http://tracker.tfile.me:80/announce

Comments

You must log in to add a comment.

Embed Code

Sharing Widget

Related torrents

FILENAME SIZE SEEDS PEERS ADDED UPD
[i] Piranha 2010 iTALiAN DVDRip H264 TRL[gogt] 1.51 GB 0 0 6 years 3 months

Top Movies ( auto generated report )

FILENAME SIZE SEEDS PEERS ADDED UPD
[i] Going in Style (2017) [720p] [YTS AG] 713.31 MB 7555 4189 1 day 6 hours
[i] Going in Style (2017) [1080p] [YTS AG] 1.47 GB 6548 3336 1 day 6 hours
[i] Colossal (2016) [720p] [YTS AG] 797.03 MB 2620 1311 2 days 1 day
[i] Colossal (2016) [1080p] [YTS AG] 1.66 GB 2497 1293 2 days 1 day
[i] S W A T - Under Siege (2017) [720p] [YTS AG] 665.25 MB 2586 1468 1 day 6 hours
[i] Sleight (2016) [720p] [YTS AG] 658.87 MB 1861 1053 2 days 1 day
[i] S W A T - Under Siege (2017) [1080p] [YTS AG] 1.36 GB 1817 972 1 day 6 hours
[i] Sleight (2016) [1080p] [YTS AG] 1.36 GB 1417 561 2 days 1 day
[i] The Hippopotamus (2017) [720p] [YTS AG] 655.89 MB 1438 559 1 day 6 hours
[i] The Hippopotamus (2017) [1080p] [YTS AG] 1.36 GB 1198 495 1 day 6 hours