Bit Torrent Scene a public file sharing platform Home Categories Blog About

advertising ( remove )

Sausage.Party.2016.HDCam.HQ-Mic.Xvid.AC3.UnKnOwN.Hive-CM8

DOWNLOAD TORRENT

Posted on August 19, 2016 in Movies » Animation , verified torrent

Size: 1.3 GB , Seeds: 175 , Peers: 14 ( Updated August 25, 2016 - Refresh )

* Download via Magnet Link * To download files you need a Bittorrent Client ,

advertising ( remove )

External Info

Trailer | Wikipedia | Other Info

Internal Files

Sausage.Party.2016.HDCam.HQ-Mic.Xvid.AC3.UnKnOwN.Hive-CM8.avi
Sausage.Party.2016.HDCam.HQ-Mic.Xvid.AC3.UnKnOwN.Hive-CM8.avi   1.3 GB

Hash Code

b13e607651780f95631822fb24adaa37fb19d555

Description

SCREENSHOT



Sausage.Party.2016.HDCam.HQ-Mic.Xvid.AC3.UnKnOwN.Hive-CM8



Thx Hive



CM8 Doing It Right The First Time



Sources:



Video: OWN 1080P HDCAM MaTiNE

Audio: OWN English HQ Mic MaTiNE

thx



Notes:

Have the pleasure to work with 2 Groups we know best MaTiNe and UnKnOwN

and we made a First exclusive UnKnOwN-Hive-CM8 Comborelease for the public.

Our chosen VIPS had this a week earlier, maybe you like to be one of them too!

Many more are coming!!!

Now we decided to free it, so that everyone can enjoy a Quality release too.



Encode:

Cam was very nice needed fixing ar and perspective

brightness,contrast and sharpness were already perfect nothing done here.

Audio was already nice,almost sounds like line, tweaked and lipsynced to video.

got very nice

enjoy



Video: 720x256 @bitrate 2000 2pass

Audio: English HQ Mic AC3 2.0

Sample: yes included



https://www.imdb.com/title/tt1700841/



Screens

SCREENSHOT

SCREENSHOT

SCREENSHOT

SCREENSHOT

SCREENSHOT

SCREENSHOT

SCREENSHOT

SCREENSHOT



Plot



A sausage strives to discover the truth about his existence.



Cast overview, first billed only:



Alistair Abell ... Mariachi Salsa / Gefilte Fish (voice)

Iris Apatow ... Berry Good Candies / Grape #3 / Coconut Milk (voice)

Sugar Lyn Beard ... Baby Carrot / Cookies (voice)

Michael Cera ... Barry (voice)

Ian James Corlett ... Apple / Tickilish Licorice / Relish / Bag of Dog Food (voice)

Michael Daingerfield ... Chunk Munchers Cereal / Light Bulb / Indian Chutney (voice)

Brian Dobson ... Italian Tomato / Lettuce (voice)

Michael Dobson ... Queso (voice)

James Franco ... Druggie (voice)

Bill Hader ... Firewater / Tequila / El Guaco (voice)

Ian Hanlin ... Beet (voice)

Salma Hayek ... Teresa (voice)

Maryke Hendrikse ... Popped Cherry Mixer / Plum #1 / Loretta Bun / Frozen Fruitz (voice)

Jonah Hill ... Carl (voice)

Anders Holm ... Troy (voice)



General

Complete name : Sausage.Party.2016.HDCam.HQ-Mic.Xvid.AC3.UnKnOwN.Hive-CM8.avi

Format : AVI

Format/Info : Audio Video Interleave

File size : 1.30 GiB

Duration : 1h 21mn

Overall bit rate : 2 267 Kbps

Writing application : Nandub v1.0rc2

Writing library : Nandub build 1853/release



Video

ID : 0

Format : MPEG-4 Visual

Format profile : Advanced [email protected]/* */

Format settings, BVOP : 2

Format settings, QPel : Yes

Format settings, GMC : No warppoints

Format settings, Matrix : Default (H.263)

Muxing mode : Packed bitstream

Codec ID : XVID

Codec ID/Hint : XviD

Duration : 1h 21mn

Bit rate : 1 999 Kbps

Width : 720 pixels

Height : 256 pixels

Display aspect ratio : 2.813

Frame rate : 29.970 fps

Color space : YUV

Chroma subsampling : 4:2:0

Bit depth : 8 bits

Scan type : Progressive

Compression mode : Lossy

Bits/(Pixel*Frame) : 0.362

Stream size : 1.14 GiB (88%)

Writing library : XviD 1.2.1 (UTC 2008-12-04)



Audio

ID : 1

Format : AC-3

Format/Info : Audio Coding 3

Mode extension : CM (complete main)

Format settings, Endianness : Big

Codec ID : 2000

Duration : 1h 21mn

Bit rate mode : Constant

Bit rate : 256 Kbps

Channel(s) : 2 channels

Channel positions : Front: L R

Sampling rate : 48.0 KHz

Bit depth : 16 bits

Compression mode : Lossy

Stream size : 150 MiB (11%)

Alignment : Split accross interleaves

Interleave, duration : 33 ms (1.00 video frame)

Interleave, preload duration : 500 ms



Still looking for guys who can get 1080p cams and line, no encoders plz

msg us [email protected]/* */



LOOKING FOR ANYTHING YOU WANT TO LOOK AND SOUND BETTER



COME FIND US WE DONT BITE

Torrent location

https://peertorrent.com/torrent/5116278/Sausage.Party.2016.HDCam.HQ-Mic.Xvid.AC3.UnKnOwN.Hive-CM8.html

Scrape History ( seeds + peers )

Trackers

Refresh Leechers : Updated August 25, 2016

1. udp://tracker.coppersurfer.tk:6969

2. udp://tracker.openbittorrent.com:80

3. udp://tracker.openbittorrent.com:80/announce

4. udp://coppersurfer.tk:6969/announce

5. udp://tracker.opentrackr.org:1337/announce

6. udp://glotorrents.pw:6969/announce

7. udp://tracker.opentrackr.org:1337/

8. udp://9.rarbg.to:2710/announce

9. udp://tracker.glotorrents.com:6969/announce

10. udp://9.rarbg.me:2710/announce

11. udp://eddie4.nl:6969/announce

12. udp://tracker.piratepublic.com:1337/announce

Comments

You must log in to add a comment.

Embed Code

Sharing Widget

Related torrents

FILENAME SIZE SEEDS PEERS ADDED UPD
[i] Sausage.Party.2016.HDCam.HQ-Mic.Xvid.AC3.UnKnOwN.Hive-CM8 1.31 GB 5392 3118 1 week 1 week
[i] Sausage.Party.2016.HDCam.HQ.Mic.Xvid.AC3.UnKnOwN.Hive.CM8. 1.31 GB 465 145 1 week 5 days
[i] Sausage Party (2016) HDCam HQ-Mic 550MB - MkvCage 552.3 MB 191 24 1 week 4 days
[i] Sausage.Party.2016.HDCAM.350MB.Ganool 351.65 MB 70 7 1 week 4 days
[i] Sausage Party 2016 - HDCam - 500MB - GoenWae 509.65 MB 68 13 1 week 2 days
[i] Sausage.Party.2016.HDCam.HQ-Mic.Xvid.AC3.UnKnOwN.Hive-CM8 1.31 GB 38 14 1 week 4 days
[i] Sausage Party 2016 HDCam HQ-Mic Xvid AC3-CrackNetApps
posted by cracknetapps in Movies - Animation
1.32 GB 4 7 6 days 6 days

Top Movies ( auto generated report )

FILENAME SIZE SEEDS PEERS ADDED UPD
[i] Now.You.See.Me.2.2016.1080p.BluRay.x264.AC3-JYK 2.93 GB 5623 2377 3 days 17 hours
[i] Jason.Bourne.720p.HDTC.X264-NUKU
Movies - Action , Quality: Audio 8/10 - Video 8/10
2.49 GB 8305 4566 1 day 18 hours
[i] Blood.Father.2016.HDRip.XViD-ETRG 711.3 MB 7851 3968 3 days 2 days
[i] The Conjuring 2 (2016) 720p BluRay - 1.2GB - ShAaNiG 1.2 GB 7125 5490 3 days 2 days
[i] Jason Bourne (2016) 720p HDTC 850MB - MkvCage 904.3 MB 3847 1228 2 days 19 hours
[i] Blood.Father.2016.720p.WEBRip.x264.AAC-ETRG 662.3 MB 4159 2580 2 days 1 day
[i] War Dogs 2016 HD-TS x264-CPG 2.1 GB 3948 3105 2 days 1 day
[i] Our.Kind.of.Traitor.2016.HDRip.XviD.AC3-EVO 1.41 GB 4183 3294 1 day 18 hours
[i] The.Conjuring.2.2016.720p.BRRip.x264.AAC-ETRG 1004.3 MB 3885 3190 2 days 1 day
[i] The.Conjuring.2.2016.BRRip.XViD.AC3-ETRG 1.41 GB 2498 2579 2 days 1 day
advertising ( remove )