Sausage.Party.2016.HDCam.HQ-Mic.Xvid.AC3.UnKnOwN.Hive-CM8

DOWNLOAD TORRENT

Posted on August 19, 2016 in Movies » Animation , verified torrent

Size: 1.31 GB , Seeds: 5392 , Peers: 3118 ( Updated August 20, 2016 - Refresh )

* Download via Magnet Link * To download files you need a Bittorrent Client ,

Scrape History ( seeds + peers )

Internal Files

Sausage.Party.2016.HDCam.HQ-Mic.Xvid.AC3.UnKnOwN.Hive-CM8
Sausage.Party.2016.HDCam.HQ-Mic.Xvid.AC3.UnKnOwN.Hive-CM8.avi   1.3 GB
Sausage.Party.2016.HDCam.HQ-Mic.Xvid.AC3.UnKnOwN.Hive-CM8.nfo   4.68 KB
Torrent Downloaded From peertorrent.com.txt   338 Byte
sample.avi   18.56 MB

Hash Code

190aa7ceff56edd1ec740808466ce0a9d9e0dd6a

Description

SCREENSHOT





http://www.imdb.com/title/tt1700841/





A sausage strives to discover the truth about his existence.



Directors: Greg Tiernan, Conrad Vernon

Writers: Kyle Hunter (screenplay), Ariel Shaffir (screenplay)

Stars: Seth Rogen, Kristen Wiig, Jonah Hill

Genres: Animation | Adventure | Comedy | Fantasy

Country: USA

Language: English





Sausage.Party.2016.HDCam.HQ-Mic.Xvid.AC3.UnKnOwN.Hive-CM8



Thx Hive



CM8 Doing It Right The First Time



Sources:



Video: OWN 1080P HDCAM MaTiNE

Audio: OWN English HQ Mic MaTiNE

thx



Notes:

Have the pleasure to work with 2 Groups we know best MaTiNe and UnKnOwN

and we made a First exclusive UnKnOwN-Hive-CM8 Comborelease for the public.

Our chosen VIPS had this a week earlier, maybe you like to be one of them too!

Many more are coming!!!

Now we decided to free it, so that everyone can enjoy a Quality release too.





Encode:

Cam was very nice needed fixing ar and perspective

brightness,contrast and sharpness were already perfect nothing done here.

Audio was already nice,almost sounds like line, tweaked and lipsynced to video.

got very nice

enjoy





Video: 720x256 @bitrate 2000 2pass

Audio: English HQ Mic AC3 2.0

Sample: yes included





General

Complete name : Sausage.Party.2016.HDCam.HQ-Mic.Xvid.AC3.UnKnOwN.Hive-CM8.avi

Format : AVI

Format/Info : Audio Video Interleave

File size : 1.30 GiB

Duration : 1h 21mn

Overall bit rate : 2 267 Kbps

Writing application : Nandub v1.0rc2

Writing library : Nandub build 1853/release



Video

ID : 0

Format : MPEG-4 Visual

Format profile : Advanced [email protected]/* */

Format settings, BVOP : 2

Format settings, QPel : Yes

Format settings, GMC : No warppoints

Format settings, Matrix : Default (H.263)

Muxing mode : Packed bitstream

Codec ID : XVID

Codec ID/Hint : XviD

Duration : 1h 21mn

Bit rate : 1 999 Kbps

Width : 720 pixels

Height : 256 pixels

Display aspect ratio : 2.813

Frame rate : 29.970 fps

Color space : YUV

Chroma subsampling : 4:2:0

Bit depth : 8 bits

Scan type : Progressive

Compression mode : Lossy

Bits/(Pixel*Frame) : 0.362

Stream size : 1.14 GiB (88%)

Writing library : XviD 1.2.1 (UTC 2008-12-04)



Audio

ID : 1

Format : AC-3

Format/Info : Audio Coding 3

Mode extension : CM (complete main)

Format settings, Endianness : Big

Codec ID : 2000

Duration : 1h 21mn

Bit rate mode : Constant

Bit rate : 256 Kbps

Channel(s) : 2 channels

Channel positions : Front: L R

Sampling rate : 48.0 KHz

Bit depth : 16 bits

Compression mode : Lossy

Stream size : 150 MiB (11%)

Alignment : Split accross interleaves

Interleave, duration : 33 ms (1.00 video frame)

Interleave, preload duration : 500 ms





SCREENSHOT SCREENSHOT SCREENSHOT SCREENSHOT SCREENSHOT SCREENSHOT SCREENSHOT SCREENSHOT

Torrent location

https://peertorrent.com/torrent/5116812/Sausage.Party.2016.HDCam.HQ-Mic.Xvid.AC3.UnKnOwN.Hive-CM8.html

Trackers

Refresh Leechers : Updated August 20, 2016

1. udp://tracker.coppersurfer.tk:6969/announce

2. udp://thetracker.org:80/announce

3. udp://tracker.coppersurfer.tk:6969

4. udp://tracker.leechers-paradise.org:6969/announce

5. udp://eddie4.nl:6969/announce

6. udp://zer0day.ch:1337/announce

7. udp://9.rarbg.me:2710/announce

8. udp://9.rarbg.to:2710/announce

9. udp://torrent.gresille.org:80/announce

10. udp://tracker.aletorrenty.pl:2710/announce

11. udp://tracker.ilibr.org:6969/announce

12. udp://tracker.opentrackr.org:1337/announce

13. udp://explodie.org:6969/announce

14. udp://p4p.arenabg.ch:1337/announce

15. udp://p4p.arenabg.com:1337/announce

Comments

You must log in to add a comment.

Embed Code

Sharing Widget

Related torrents

FILENAME SIZE SEEDS PEERS ADDED UPD
[i] Sausage.Party.2016.HDCam.HQ.Mic.Xvid.AC3.UnKnOwN.Hive.CM8. 1.31 GB 162 35 8 months 7 months
[i] Sausage.Party.2016.HDCam.HQ-Mic.Xvid.AC3.UnKnOwN.Hive-CM8 1.3 GB 49 5 8 months 7 months
[i] Sausage Party (2016) HDCam HQ-Mic 550MB - MkvCage 552.3 MB 47 9 8 months 7 months
[i] Sausage.Party.2016.HDCAM.350MB.Ganool 351.65 MB 29 8 8 months 7 months
[i] Sausage Party 2016 - NEW HDCAM - UNCENSORED - HQMic - 500MB - GoenWae 501.65 MB 29 3 7 months 5 months
[i] Sausage.Party.2016.HDCam.HQ-Mic.Xvid.AC3.UnKnOwN.Hive-CM8 1.31 GB 23 6 8 months 7 months
[i] Sausage Party 2016 - HDCam - 500MB - GoenWae 509.65 MB 17 1 8 months 6 months
[i] Sausage Party 2016 V2 HDCAM 500 MB - iExTV 501.65 MB 14 1 7 months 5 months
[i] Sausage.Party.2016.NEW.HDCAM.UNCENSORED.HQMic.x264.CPG. 1.36 GB 10 3 7 months 5 months
[i] Sausage Party 2016 NEW HDCAM UNCENSORED HQMic x264-CPG 1.36 GB 8 1 7 months 5 months

Top Movies ( auto generated report )

FILENAME SIZE SEEDS PEERS ADDED UPD
[i] Fifty Shades Darker (2017) [720p] [YTS AG] 961.72 MB 5577 5458 2 days 9 hours
[i] Fifty Shades Darker (2017) [1080p] [YTS AG] 1.99 GB 4474 5396 2 days 1 day
[i] Bahubali 2 (2017) Desi Cam HinDI - AVC - AAC - Team IcTv Exclusive 728.3 MB 4852 4373 1 day 14 hours
[i] Mine (HDRip) 1.78 GB 3690 890 4 days 2 days
[i] De-mentes criminales (HDRip) 1.69 GB 2952 1046 3 days 2 days
[i] The devil's dolls (HDRip) 1.42 GB 1678 648 2 days 1 day
[i] Mythica- The Iron Crown (2016) [720p] [YTS AG] 718.3 MB 1662 1416 2 days 1 day
[i] Hacker (2016) [720p] [YTS AG] 794.52 MB 1531 1927 21 hours 19 hours
[i] Mythica - The Iron Crown (2016) [1080p] [YTS AG] 1.48 GB 1281 623 1 day 22 hours
[i] Fifty.Shades.Darker.2017.UNRATED.1080p.WEB-DL.DD5.1.H264-FGT 4.54 GB 1190 378 4 days 1 day