Bit Torrent Scene a public file sharing platform Home Categories About

Warning! Use a VPN When Downloading Torrents!
Your IP Address is . Location is
Avoid LAWSUITS and FINES! Hide your IP ADDRESS with a VPN!
We strongly recommend using Trust.Zone VPN to anonymize your torrenting. It's FREE!
Get VPN Now for FREE!

Snow White and the Huntsman 2012 TS XViD AC3-ADTRG

DOWNLOAD TORRENT

Posted on June 7, 2012 in Movies » Action , verified torrent

Size: 1.39 GB , Seeds: 16 , Peers: 1 ( Updated February 5, 2016 - Refresh )

Quality: Audio 6/10 - Video 6/10 ( defined by users )

* Download via Magnet Link

Loading...

Scrape History ( seeds + peers )

Internal Files

[UsaBit.com] -Snow.White.and.the.Huntsman.2012.TS.XViD.AC3-ADTRG
Sample.avi   8.33 MB
Snow.White.and.the.Huntsman.2012.TS.XViD.AC3-ADTRG.avi   1.39 GB
Snow.White.and.the.Huntsman.2012.TS.XViD.AC3-ADTRG.nfo   2.41 KB
www.UsaBit.com.txt   1 Byte

Hash Code

0393afe75fe60e5dfb7333229a71f32c8a898030

Description

image

In a twist to the fairy tale, the Huntsman ordered to take Snow White into the woods to be killed winds up becoming her protector and mentor in a quest to vanquish the Evil Queen.


Complete name : Snow.White.and.the.Huntsman.2012.TS.XViD.AC3-ADTRG.avi
Format : AVI
Format/Info : Audio Video Interleave
File size : 1.39 GiB
Duration : 1h 57mn
Overall bit rate : 1 693 Kbps
Writing application : Nandub v1.0rc2
Writing library : VirtualDub build 34703/release

Video
ID : 0
Format : MPEG-4 Visual
Codec ID : XVID
Bit rate : 1 489 Kbps
Width : 720 pixels
Height : 320 pixels
Display aspect ratio : 2.25:1
Frame rate : 29.970 fps
Stream size : 1.22 GiB (88%)

Audio
ID : 1
Format : AC-3
Bit rate : 192 Kbps
Channel(s) : 2 channels
Channel positions : Front: L R
Sampling rate : 48.0 KHz
Stream size : 161 MiB (11%)


Source - Cam German Thanks
Source - LiNe - Dragon Exclusive Thanks, Awesome work bro

Notes.
Very nice Cam, Even better LiNe (Cheers Bro) slight flicker every now and then, luckily not to often or to bad. Who reads NFO's anyway, so im of to bed, get some BooM Boom and Eat. Enjoy
Remember, if you love it and you want it, Sync some LiNe with it. lol

image

Torrent location

http://kat.ph/snow-white-and-the-huntsman-2012-ts-xvid-ac3-adtrg-t6434203.html

Trackers

Refresh Leechers : Updated February 5, 2016

1. udp://tracker.1337x.org:80/announce

2. udp://tracker.publicbt.com:80/announce

3. udp://tracker.openbittorrent.com:80/announce

4. udp://fr33domtracker.h33t.com:3310/announce

5. http://exodus.desync.com:6969/announce

6. udp://tracker.istole.it:80/announce

7. udp://tracker.istole.it:80/announce

8. http://tracker.istole.it/announce

9. udp://tracker.publicbt.com:80/announce

10. http://tracker.publicbt.com/announce

Comments

You must log in to add a comment.

richmond •2 2012-07-05 04:30:31

AUDIO: 8 - VIDEO: 7

watchable.. thanks
crispino •271 2012-06-29 19:11:37

AUDIO: 6 - VIDEO: 6

enjoyed this movie very much
Camilo •116 2012-06-25 18:54:26

AUDIO: 6 - VIDEO: 6

great movie not bad for cam watchable
Courtney2 •182 2012-06-20 18:27:14

AUDIO: 6 - VIDEO: 6

pretty good copy thanks
imarion •1834 2012-06-11 20:12:27

AUDIO: 7 - VIDEO: 6

for a cam it is very good.
elliot •268 2012-06-11 18:22:41

AUDIO: 7 - VIDEO: 6

excellent copy! Thanks uploader
alexei •75 2012-06-10 07:35:44

AUDIO: 7 - VIDEO: 6

watchable copy

Embed Code

Sharing Widget

Related torrents

FILENAME SIZE SEEDS PEERS ADDED UPD
[i]
[i]
Snow White and the Huntsman EXTENDED (2012) 1080p BrRip x264 - 1
Movies - Action , Quality: Audio 9/10 - Video 9/10
1.75 GB 161 24 4 years 1 year
[i] Snow.White.Happily.Ever.After.2016.HDRip.XviD.AC3-EVO 1.16 GB 141 38 8 months 6 months
[i] Snow.White.and.the.Huntsman.2012.720p.BluRay.x264.AAC-ETRG 961.3 MB 109 7 11 months 8 months
[i]
[i]
Snow White and the Huntsman 2012 french extended bdrip xvid aymo
posted by donatien in Movies - Adventure , Quality: Audio 8/10 - Video 9/10
1.36 GB 74 8 4 years 1 year
[i] Snow White and the HunTSman 2012 EXTENDED FRENCH BRRip XviD AC3-AUTOPSiE 2.05 GB 52 2 4 years 1 year
[i]
[i]
Snow White and the Huntsman (2012) DVDRip XviD-MAX
Movies - Adventure , Quality: Audio 8/10 - Video 8/10
1.25 GB 46 4 4 years 1 year
[i] Snow White and the Huntsman 2012 720p BRRip x264-x0r
posted by hotpena in Movies - Action
2.34 GB 41 9 2 years 11 months
[i] Snow.White.A.Deadly.Summer.2012.TRUEFRENCH.DVDRip.XviD-UTT 697.07 MB 38 2 4 years 1 year
[i]
[i]
Snow White and the Huntsman 2012 EXTENDED BDRip XviD-AMIABLE
Movies - Action , Quality: Audio 8/10 - Video 8/10
1.38 GB 35 13 4 years 1 year
[i] Peter Pan Dumbo Pinocchio Snow White - Disney DVD Pack [h33t][flint] 1.44 GB 22 5 6 years 1 year

Top Movies ( auto generated report )

FILENAME SIZE SEEDS PEERS ADDED UPD
[i] Patriots Day 2016 1080p BluRay x264 DTS-JYK 3.36 GB 3746 3901 7 hours 5 hours
[i] The.Space.Between.Us.2017.HC.HDRip.XViD.AC3-ETRG 1.4 GB 3374 3964 3 days 2 days
[i] Resident.Evil.The.Final.Chapter.2016.1080p.BluRay.x264.DTS-JYK 2.69 GB 1737 717 2 days 2 hours
[i] Breaking.Bad.The.Movie.2017.HDRip.XViD.AC3-ETRG 1.4 GB 1997 607 2 days 1 day
[i] Paterson (2016) [1080p] [YTS AG] 1.8 GB 1851 1108 3 days 2 days
[i] The Chamber (2016) [720p] [YTS AG] 663.13 MB 1408 444 5 days 6 hours
[i] Hidden.Figures.2016.720p.BRRip.x264.AAC-ETRG 949.3 MB 1676 1382 2 days 1 day
[i] The Chamber (2016) [1080p] [YTS AG] 1.37 GB 1524 927 5 days 4 days
[i] Dig.Two.Graves.2014.HDRip.XViD-ETRG 712.3 MB 1474 1090 1 day 8 hours
[i] Prevenge.2016.HDRip.XViD-ETRG 709.3 MB 1457 1137 1 day 9 hours
advertising ( remove )