Snow White and the Huntsman (2012) DVDRip XviD-MAX

DOWNLOAD TORRENT

Posted on August 30, 2012 in Movies » Adventure , verified torrent

Size: 1.25 GB , Seeds: 5 , Peers: 0 ( Updated May 29, 2017 - Refresh )

Quality: Audio 8/10 - Video 8/10 ( defined by users )

* Download via Magnet Link * To download files you need a Bittorrent Client ,

Scrape History ( seeds + peers )

Internal Files

Snow White and the Huntsman (2012) DVDRip XviD-MAXSPEED
Snow White and the Huntsman (2012) DVDRip XviD-MAXSPEED www.torentz.3xforum.ro.avi   1.24 GB
sample.avi   8.14 MB
screencaps.jpeg   493.67 KB
Snow White and the Huntsman (2012) DVDRip XviD-MAXSPEED.nfo   3.39 KB
Torrent downloaded from Kat.ph.txt   46 Byte
Torrent downloaded from Extratorrent.com.txt   40 Byte
Torrent downloaded from Rarbg.com.txt   33 Byte
Torrent downloaded from h33t.com.txt   32 Byte

Hash Code

d9e4aea9747c4aec7e80d1ec6da3f311342e6c4a

Description

SCREENSHOT

Screens:

SCREENSHOT
SCREENSHOT
SCREENSHOT
SCREENSHOT

Alternative:

SCREENSHOT
SCREENSHOT
SCREENSHOT
SCREENSHOT

ScreenCaps:

SCREENSHOT

Snow White and the Huntsman (2012) DVDRip XviD-MAX
Format : AVI
Format/Info : Audio Video Interleave
Format profile : OpenDML
Format settings : rec
File size : 1.24 GiB
Duration : 2h 11mn
Overall bit rate : 1 353 Kbps
Writing application : VirtualDubMod 1.5.10.2 (build 2542/release)
Writing library : VirtualDubMod build 2542/release
Original source form : MAX TORRENTZ
Copyright : SIGISMUNT

Video
ID : 0
Format : MPEG-4 Visual
Format profile : Advanced [email protected]
Format settings, BVOP : 2
Format settings, QPel : No
Format settings, GMC : No warppoints
Format settings, Matrix : Default (H.263)
Muxing mode : Packed bitstream
Codec ID : XVID
Codec ID/Hint : XviD
Duration : 2h 11mn
Bit rate : 1 028 Kbps
Width : 640 pixels
Height : 272 pixels
Display aspect ratio : 2.35:1
Frame rate : 23.976 fps
Color space : YUV
Chroma subsampling : 4:2:0
Bit depth : 8 bits
Scan type : Progressive
Compression mode : Lossy
Bits/(Pixel*Frame) : 0.246
Stream size : 967 MiB (76%)
Writing library : XviD 64

Audio
ID : 1
Format : AC-3
Format/Info : Audio Coding 3
Mode extension : CM (complete main)
Format settings, Endianness : Big
Codec ID : 2000
Duration : 2h 11mn
Bit rate mode : Constant
Bit rate : 320 Kbps
Channel(s) : 6 channels
Channel positions : Front: L C R, Side: L R, LFE
Sampling rate : 48.0 KHz
Bit depth : 16 bits
Compression mode : Lossy
Stream size : 301 MiB (24%)
Alignment : Aligned on interleaves
Interleave, duration : 64 ms (1.53 video frames)
Interleave, preload duration : 192 ms

Source: DVD (perfect a/v/sync quality,sample included)
This torrent is not seedbox supported,please seed it to the MAX

Torrent location

http://thepiratebay.se/torrent/7583842/Snow_White_and_the_Huntsman_(2012)_DVDRip_XviD-MAX

Trackers

Refresh Leechers : Updated May 29, 2017

1. http://tracker.thepiratebay.org/announce

2. udp://tracker.openbittorrent.com:80

3. udp://tracker.publicbt.com:80

4. udp://tracker.istole.it:80

5. udp://tracker.ccc.de:80

6. http://ipv4.tracker.harry.lu/announce

7. http://tracker.torrentbay.to:6969/announce

8. http://cpleft.com:2710/announce

9. http://exodus.desync.com:6969/announce

10. udp://tracker.1337x.org:80/announce

11. udp://9.rarbg.com:2710/announce

12. udp://fr33dom.h33t.com:3310/announce

13. http://fr33dom.h33t.com:3310/announce

Comments

You must log in to add a comment.

dartpool •100 2012-09-24 04:47:29
Thanks!
shuichi •144 2012-09-12 12:10:31

AUDIO: 8 - VIDEO: 9

sound and picture are great...perfect work!
bibek •69 2012-09-11 13:39:53

AUDIO: 9 - VIDEO: 9

very good torrent quality,thanks.
bibek 2012-09-03 09:26:11

AUDIO: 8 - VIDEO: 8

IM NOT TRYING TO TROLL JUST PROMOTE MY TORRENT http://www.btscene.eu/details/3218904/Snow+White+And+The+Huntsman+2012+1080p+BrRip+Pimp4003.html THATS SNOW WHITE AND THE HUNTSMAN 1080P IN 421MB SIZE WITH SCREEN SHOTS
aloisio •262 2012-09-03 09:09:04

AUDIO: 9 - VIDEO: 9

Awesome quality works great thank you
cicca •232 2012-08-31 11:18:39

AUDIO: 9 - VIDEO: 9

DVD quality

Embed Code

Sharing Widget

Related torrents

FILENAME SIZE SEEDS PEERS ADDED UPD
[i]
[i]
Snow White and the Huntsman EXTENDED (2012) 1080p BrRip x264 - 1
Movies - Action , Quality: Audio 9/10 - Video 9/10
1.75 GB 147 13 4 years 1 month
[i] Snow.White.Happily.Ever.After.2016.HDRip.XviD.AC3-EVO 1.16 GB 141 38 11 months 9 months
[i]
[i]
Snow White and the Huntsman 2012 french extended bdrip xvid aymo
posted by donatien in Movies - Adventure , Quality: Audio 8/10 - Video 9/10
1.36 GB 49 3 4 years 4 weeks
[i] Snow White and the Huntsman 2012 720p BRRip x264-x0r
posted by hotpena in Movies - Action
2.34 GB 41 9 2 years 1 year
[i] Snow.White.and.the.Huntsman.2012.720p.BluRay.x264.AAC-ETRG 961.3 MB 35 2 1 year 2 months
[i] Snow White and the HunTSman 2012 EXTENDED FRENCH BRRip XviD AC3-AUTOPSiE 2.05 GB 28 2 4 years 2 weeks
[i] Snow.White.A.Deadly.Summer.2012.TRUEFRENCH.DVDRip.XviD-UTT 697.07 MB 20 6 4 years 2 weeks
[i] Snow White And The Seven Dwarfs 1937 720p BluRay x264-x0r
posted by hotpena in Movies - Animation
1.47 GB 20 10 2 years 7 months
[i]
[i]
Snow White and the Huntsman EXTENDED (2012) 720p BrRip x264 - YIFY
Movies - Adventure , Quality: Audio 9/10 - Video 9/10
852.3 MB 15 3 4 years 1 month
[i] Snow White and the 7 Dwarfs Greek Audio-Metaglotismeno (1937) 1.34 GB 15 1 3 years 5 days

Top Movies ( auto generated report )

FILENAME SIZE SEEDS PEERS ADDED UPD
[i] Kong Skull Island (2017) [1080p] [YTS AG] 1.81 GB 11002 4730 4 days 2 days
[i] Kong- Skull Island (2017) [720p] [YTS AG] 883.55 MB 9677 9528 4 days 3 days
[i] King.Arthur.Legend.of.the.Sword.2017.1080p.KORSUB.HDRip.x264.AAC2.0-STUTTERSHIT[rarbg] 3.94 GB 8296 4447 4 days 1 day
[i] King.Arthur.Legend.of.the.Sword.2017.KORSUB.HDRip.x264-STUTTERSHIT[rarbg] 1.03 GB 4512 2499 4 days 3 days
[i] Extortion (2017) [720p] [YTS AG] 807.26 MB 1988 1178 2 days 1 day
[i] Smurfs.The.Lost.Village.2017.1080p.WEB-DL.DD5.1.H264-FGT- rarbg.to .torrent 3.44 GB 1312 236 1 day 5 hours
[i] King.Arthur.Legend.of.the.Sword.2017.720p.HC.HDRip.X264.AC3-EVO 2.81 GB 1618 1103 4 days 3 days
[i] Transformers The Last Knight 2017 HDTS x264 KOSHARA 1.37 GB 1578 381 5 days 1 day
[i] Extortion (2017) [1080p] [YTS AG] 1.67 GB 1554 884 2 days 1 day
[i] Moontrap Target Earth (2017) [720p] [YTS AG] 627.54 MB 1505 862 4 days 3 days