Bit Torrent Scene a public file sharing platform Home Categories Blog About

advertising ( remove )

Star Trek Beyond (2016) 1CD x264 AAC 2.0 -DDR

DOWNLOAD TORRENT

Posted on August 14, 2016 in Movies » Sci-Fi , verified torrent

Size: 704.3 MB , Seeds: 2377 , Peers: 1738 ( Updated August 15, 2016 - Refresh )

Quality: Audio 7/10 - Video 7/10 ( defined by users )

* Download via Magnet Link * To download files you need a Bittorrent Client ,

advertising ( remove )

External Info

Trailer | Wikipedia | Other Info

Internal Files

Star Trek Beyond (2016) 1CD x264 AAC 2.0 -DDR
Star Trek Beyond (2016) 1CD x264 AAC 2.0 -DDR.mkv   697.21 MB
(sample) Star Trek Beyond (2016) 1CD x264 AAC 2.0 -DDR.mkv   5.87 MB
A DDR Release !!.txt   287 Byte

Hash Code

9c31668fd89237c415f41c5c80c646a11daec4cf

Description

SCREENSHOT

- HollyWooD Movie-



Star Trek beyond

** 2016 **

1CD CAM / x264 / AAC 2.0



Video Flikering removed



SCREENSHOT



SCREENSHOT SCREENSHOT SCREENSHOT SCREENSHOT SCREENSHOT SCREENSHOT SCREENSHOT SCREENSHOT SCREENSHOT





Source : Unknown (Thanks)

Format : Matroska

File size : 697 MiB

Duration : 1h 53mn

Overall bit rate mode : Variable

Overall bit rate : 860 Kbps





Video

Format : AVC

Format/Info : Advanced Video Codec

Format profile : [email protected]/* */

Format settings, CABAC : Yes

Format settings, ReFrames : 16 frames

Codec ID : V_MPEG4/ISO/AVC

Duration : 1h 53mn

Bit rate mode : Variable

Bit rate : 794 Kbps

Maximum bit rate : 62.5 Mbps

Width : 720 pixels

Height : 304 pixels

Display aspect ratio : 2.35:1

Frame rate mode : Constant

Frame rate : 29.970 (30000/1001) fps

Color space : YUV

Chroma subsampling : 4:2:0

Bit depth : 8 bits

Scan type : Progressive

Bits/(Pixel*Frame) : 0.121

Stream size : 643 MiB (92%)



Audio

Format : AAC

Format/Info : Advanced Audio Codec

Format profile : LC

Codec ID : A_AAC

Duration : 1h 53mn

Bit rate : 64.0 Kbps

Channel(s) : 2 channels

Channel positions : Front: L R

Sampling rate : 44.1 KHz

Frame rate : 43.066 fps (1024 spf)

Compression mode : Lossy

Delay relative to video : 10ms

Stream size : 51.9 MiB (7%)

Default : Yes



Chapters : No



Sample : Included



A DDR Rxclusive Encode

Torrent location

https://peertorrent.com/torrent/5107541/Star+Trek+Beyond+%282016%29+1CD+x264+AAC+2.0+-DDR.html

Scrape History ( seeds + peers )

Trackers

Refresh Leechers : Updated August 15, 2016

1. udp://tracker.coppersurfer.tk:6969/announce

2. udp://thetracker.org:80/announce

3. udp://tracker.coppersurfer.tk:6969/announce

4. udp://tracker.leechers-paradise.org:6969/announce

5. udp://eddie4.nl:6969/announce

6. udp://zer0day.ch:1337/announce

7. udp://tracker.sktorrent.net:6969/announce

8. udp://9.rarbg.me:2710/announce

9. udp://9.rarbg.to:2710/announce

10. udp://torrent.gresille.org:80/announce

11. udp://tracker.aletorrenty.pl:2710/announce

12. udp://tracker.piratepublic.com:1337/announce

13. udp://tracker.opentrackr.org:1337/announce

14. udp://explodie.org:6969/announce

15. udp://p4p.arenabg.ch:1337/announce

Comments

You must log in to add a comment.

YVR_II •2 2016-08-27 03:01:27

AUDIO: 7 - VIDEO: 7

Thanks uploader...

Embed Code

Sharing Widget

Related torrents

FILENAME SIZE SEEDS PEERS ADDED UPD
[i] Star Trek Beyond (2016) ENG Cam V2 XviD UnKnOwN 1.51 GB 2121 274 1 month 2 weeks
[i] Star.Trek.Beyond.2016.HDTS.HC.x264.AAC-iidvd 759.3 MB 1730 275 2 weeks 22 hours
[i]
[i]
Star Trek Beyond 2016 CAM UnKnOwN
Movies - Action , Quality: Audio 8/10 - Video 8/10
871.3 MB 375 13 1 month 1 day
[i] Star Trek Beyond 2016 HDCAM - [CLEANED-AUDIO] - x264 - Zi$t-CTRC 744.3 MB 256 51 1 month 2 weeks
[i] Star Trek Beyond (2016) English 700MB Cam x264 AAC - Downloadhub 703.07 MB 187 36 1 month 1 day
[i] Star Trek Beyond 2016 TSRip - x264 - AAC - Zi$t-CTRC 759.3 MB 171 39 3 weeks 1 week
[i]
[i]
Star Trek Beyond (2016) ENG Cam V2 XviD UnKnOwN
Movies - Action , Quality: Audio 8/10 - Video 6/10
1.51 GB 90 13 1 month 2 weeks
[i] Star Trek Beyond - (2016) - CAMRip -Dual Audio [English - Hindi] - x264 - AAC - Makintos13 699.15 MB 82 13 4 weeks 2 weeks
[i] Star Trek Beyond (2016) CAMRip x264 [Dual-Audio] [English + Hindi (Clean)] - Downloadhub 867.82 MB 75 35 4 weeks 2 weeks
[i] Star Trek Beyond 2016 [HINDI-D ED] HDTS - x264 - Zi$t-CTRC 502.65 MB 45 8 1 month 2 weeks

Top Movies ( auto generated report )

FILENAME SIZE SEEDS PEERS ADDED UPD
[i] Now.You.See.Me.2.2016.1080p.BluRay.x264.AC3-JYK 2.93 GB 8132 5852 1 day 19 hours
[i] Blood.Father.2016.HDRip.XViD-ETRG 711.3 MB 7851 3968 2 days 11 hours
[i] The Conjuring 2 (2016) 720p BluRay - 1.2GB - ShAaNiG 1.2 GB 7125 5490 1 day 11 hours
[i] Jason.Bourne.720p.HDTC.X264-NUKU 2.49 GB 6720 6287 47 min 47 min
[i] Jason Bourne (2016) 720p HDTC 850MB - MkvCage 904.3 MB 4312 2138 1 day 7 hours
[i] Blood.Father.2016.720p.WEBRip.x264.AAC-ETRG 662.3 MB 4159 2580 1 day 1 hour
[i] War Dogs 2016 HD-TS x264-CPG 2.1 GB 3948 3105 23 hours 51 min
[i] The.Conjuring.2.2016.720p.BRRip.x264.AAC-ETRG 1004.3 MB 3885 3190 1 day 1 hour
[i] Our.Kind.of.Traitor.2016.HDRip.XviD.AC3-EVO 1.41 GB 3495 4461 47 min 47 min
[i] Genius.2016.HDRip.XviD.AC3-EVO 1.39 GB 2250 1125 4 days 3 days
advertising ( remove )