Star.Trek.Beyond.2016.HDTS.HC.x264.AAC-iidvd

DOWNLOAD TORRENT

Posted on August 13, 2016 in Movies » Sci-Fi , verified torrent

Size: 759.3 MB , Seeds: 1711 , Peers: 300 ( Updated September 16, 2016 - Refresh )

* Download via Magnet Link * To download files you need a Bittorrent Client ,

Scrape History ( seeds + peers )

Internal Files

Star.Trek.Beyond.2016.HDTS.HC.x264.AAC-iidvd
Torrent Downloaded From peertorrent.com.txt   380 Byte
Star.Trek.Beyond.2016.HDTS.HC.x264.AAC-iidvd.mp4   758.21 MB

Hash Code

fca2ab571b048970758e86a09029d69d8e61283f

Description

SCREENSHOT



Format : MPEG-4

Format profile : Base Media

Codec ID : isom

File size : 758 MiB

Duration : 1h 53mn

Overall bit rate mode : Variable

Overall bit rate : 936 Kbps

Encoded date : UTC 2016-08-09 14:30:05

Tagged date : UTC 2016-08-09 14:30:05

Writing application : Lite MP4 Tool v2.3



Video

ID : 1

Format : AVC

Format/Info : Advanced Video Codec

Format profile : [email protected]/* */

Format settings, CABAC : Yes

Format settings, ReFrames : 3 frames

Codec ID : avc1

Codec ID/Info : Advanced Video Coding

Duration : 1h 53mn

Bit rate : 800 Kbps

Maximum bit rate : 3 884 Kbps

Width : 720 pixels

Height : 410 pixels

Display aspect ratio : 16:9

Frame rate mode : Constant

Frame rate : 23.976 fps

Color space : YUV

Chroma subsampling : 4:2:0

Bit depth : 8 bits

Scan type : Progressive

Bits/(Pixel*Frame) : 0.113

Stream size : 652 MiB (86%)

Title : Imported with GPAC 0.4.6-DEV (internal rev. 5)

Writing library : x264 core 80 r1376 3feaec2





Audio

ID : 2

Format : AAC

Format/Info : Advanced Audio Codec

Format profile : LC

Codec ID : 40

Duration : 1h 53mn

Bit rate mode : Variable

Bit rate : 128 Kbps

Maximum bit rate : 149 Kbps

Channel count : 1 channel

Channel positions : Front: C

Sampling rate : 44.1 KHz

Compression mode : Lossy

Stream size : 104 MiB (14%)

Encoded date : UTC 2016-08-09 14:30:18

Tagged date : UTC 2016-08-09 14:30:19



SCREENSHOT SCREENSHOT SCREENSHOT SCREENSHOT SCREENSHOT SCREENSHOT

Trackers

Refresh Leechers : Updated September 16, 2016

1. udp://tracker.coppersurfer.tk:6969/announce

2. udp://thetracker.org:80/announce

3. udp://tracker.coppersurfer.tk:6969/announce

4. udp://tracker.leechers-paradise.org:6969/announce

5. udp://eddie4.nl:6969/announce

6. udp://zer0day.ch:1337/announce

7. udp://tracker.sktorrent.net:6969/announce

8. udp://9.rarbg.me:2750/announce

9. udp://9.rarbg.to:2710/announce

10. udp://torrent.gresille.org:80/announce

11. udp://tracker.aletorrenty.pl:2710/announce

12. udp://tracker.piratepublic.com:1337/announce

13. udp://tracker.opentrackr.org:1337/announce

14. udp://explodie.org:6969/announce

15. udp://p4p.arenabg.ch:1337/announce

Comments

You must log in to add a comment.

Embed Code

Sharing Widget

Related torrents

FILENAME SIZE SEEDS PEERS ADDED UPD
[i] Star Trek Beyond (2016) 1080p WEB-DL - 6CH - 2.2GB - ShAaNiG 2.25 GB 1247 343 9 months 8 months
[i] Star Trek Beyond 2016 720p WEBRip 900 MB - iExTV 901.3 MB 485 78 9 months 8 months
[i] Star Trek Beyond (2016) ENG Cam V2 XviD UnKnOwN 1.51 GB 278 5 11 months 8 months
[i] Star Trek Beyond (2016) 720p WEB-DL - 1GB - ShAaNiG 1.1 GB 145 11 9 months 8 months
[i]
[i]
Star Trek Beyond 2016 CAM UnKnOwN
Movies - Action , Quality: Audio 8/10 - Video 8/10
871.3 MB 131 4 12 months 8 months
[i] Star Trek: Beyond (2016).720p.H264.Italian.English.Ac3.5.1.sub.Ita.Eng.iCV-MIRCrew
posted by robbyrs in Movies - Sci-fi
2.91 GB 74 6 8 months 3 months
[i] Star Trek Beyond (2016) HDRip XviD-MAXSPEED 1.34 GB 69 19 9 months 8 months
[i] Star Trek Beyond (2016) English 700MB Cam x264 AAC - Downloadhub 703.07 MB 64 18 12 months 8 months
[i] Star.Trek.Beyond.2016.HDRip.XviD.AC3-EVO[PRiME] 1.41 GB 60 8 9 months 8 months
[i] Star.Trek.Beyond.2016.1080p.WEB.DL.H264.AC3.EVO. 4.22 GB 52 5 9 months 8 months

Top Movies ( auto generated report )

FILENAME SIZE SEEDS PEERS ADDED UPD
[i] Colossal (2016) [720p] [YTS AG] 797.03 MB 2755 1577 15 hours 13 hours
[i] Drone (2017) [720p] [YTS AG] 670.13 MB 2480 535 5 days 1 day
[i] Colossal (2016) [1080p] [YTS AG] 1.66 GB 2446 1567 15 hours 13 hours
[i] Sleight (2016) [720p] [YTS AG] 658.87 MB 1969 994 15 hours 13 hours
[i] Drone (2017) [1080p] [YTS AG] 1.37 GB 1900 456 5 days 1 day
[i] Sleight (2016) [1080p] [YTS AG] 1.36 GB 1436 715 15 hours 13 hours
[i] War for the Planet of the Apes (2017) 720p HD-TS [Multi Audio][Hindi-Tamil-Russian] 1Gb [SeHD] 1.23 GB 1101 1006 1 day 1 day
[i] Viral (2016) [720p] [YTS AG] 635.49 MB 905 667 15 hours 13 hours
[i] ChickLit (2016) [720p] [YTS AG] 678.84 MB 720 198 3 days 2 days
[i] The Levelling (2016) [720p] [YTS AG] 606.64 MB 626 279 1 day 21 hours