Star Trek IV - The Voyage Home 1986 (1080p Bluray x265 HEVC 10bit AAC 7.1 Tigole) [UTR]

DOWNLOAD TORRENT

Posted on August 25, 2016 in Movies » Adventure , verified torrent

Size: 3.36 GB , Seeds: 5 , Peers: 6 ( Updated October 28, 2016 - Refresh )

* Download via Magnet Link * To download files you need a Bittorrent Client ,

Scrape History ( seeds + peers )

Internal Files

Star Trek IV - The Voyage Home 1986 (1080p Bluray x265 HEVC 10bit AAC 7.1 Tigole)
A Vulcan Primer.mkv   20.83 MB
Below-the-Line - Sound Design.mkv   42.76 MB
Dailies Deconstruction.mkv   13.4 MB
Featured Artist - Mark Lenard.mkv   31.65 MB
From Outer Space to the Ocean.mkv   47.15 MB
Future's Past - A Look Back.mkv   82.78 MB
Kirk's Women.mkv   21.25 MB
On Location.mkv   28.98 MB
Original Interview - DeForest Kelley.mkv   18.73 MB
Original Interview - Nimoy.mkv   32.23 MB
Original Interview - Shatner.mkv   32.11 MB
Pavel Chekov's Screen Moments.mkv   63.14 MB
Roddenberry Scrapbook.mkv   16.32 MB
Star Trek - Three Picture Saga.mkv   105.9 MB
Star Trek for a Cause.mkv   59.37 MB
Starfleet Academy SciSec Brief 004 - The Whale Probe.mkv   38.65 MB
The Bird of Prey.mkv   11.5 MB
The Language of Whales.mkv   26.99 MB
Theatrical Trailer.mkv   23.11 MB
Time Travel - The Art of the Possible.mkv   22.45 MB
Star Trek IV - The Voyage Home 1986 (1080p x265 10bit Tigole).mkv   2.64 GB

Hash Code

3627467a14e7ec0136171ff957fc494f6b49a876

Description

SCREENSHOT



Star Trek IV: The Voyage Home 1986 in 1080p, encoded with x265 in HEVC and AAC 7.1 English, with subtitles!

Encoded using the time consuming 2 pass, 10 bit color at 2540 kbps, from a Blu-ray source, for the highest quality possible.





SCREENSHOTSCREENSHOTSCREENSHOTSCREENSHOTSCREENSHOTSCREENSHOTSCREENSHOT



Media InformationGeneral

Unique ID : 194111671498263216176215767839077672898 (0x92088C4E45F973508C55653B3CEDA7C2)

Complete name : Star Trek IV - The Voyage Home 1986 (1080p x265 10bit Tigole).mkv

Format : Matroska

Format version : Version 4 / Version 2

File size : 2.64 GiB

Duration : 1h 58mn

Overall bit rate : 3 180 Kbps

Movie name : Star Trek IV The Voyage Home

Encoded date : UTC 2016-07-20 08:31:27

Writing application : mkvmerge v9.2.0 (\'Photograph\') 64bit

Writing library : libebml v1.3.3 + libmatroska v1.4.4



Video

ID : 1

Format : HEVC

Format/Info : High Efficiency Video Coding

Format profile : Main [email protected]/* [email protected]

Codec ID : V_MPEGH/ISO/HEVC

Duration : 1h 58mn

Bit rate : 2 541 Kbps

Width : 1 920 pixels

Height : 816 pixels

Display aspect ratio : 2.35:1

Frame rate mode : Constant

Frame rate : 23.976 (24000/1001) fps

Color space : YUV

Chroma subsampling : 4:2:0

Bit depth : 10 bits

Bits/(Pixel*Frame) : 0.068

Stream size : 2.11 GiB (80%)

Writing library : x265 1.9+200-6098ba3e0cf16b11:[Windows][GCC 5.3.0][64 bit] 10bit

Encoding settings : wpp / ctu=64 / min-cu-size=8 / max-tu-size=32 / tu-intra-depth=1 / tu-inter-depth=1 / me=1 / subme=2 / merange=57 / no-rect / no-amp / max-merge=2 / temporal-mvp / no-early-skip / recursion-skip / rdpenalty=0 / no-tskip / no-tskip-fast / strong-intra-smoothing / no-lossless / no-cu-lossless / no-constrained-intra / no-fast-intra / open-gop / no-temporal-layers / interlace=0 / keyint=250 / min-keyint=23 / scenecut=40 / rc-lookahead=20 / lookahead-slices=5 / bframes=4 / bframe-bias=0 / b-adapt=2 / ref=3 / limit-refs=3 / no-limit-modes / weightp / no-weightb / aq-mode=1 / qg-size=32 / aq-strength=1.00 / cbqpoffs=0 / crqpoffs=0 / rd=3 / psy-rd=2.00 / rdoq-level=0 / psy-rdoq=0.00 / no-rd-refine / signhide / deblock=0:0 / sao / no-sao-non-deblock / b-pyramid / cutree / no-intra-refresh / rc=2 / pass / bitrate=2540 / qcomp=0.60 / qpmin=0 / qpmax=51 / qpstep=4 / cplxblur=20.0 / qblur=0.5 / ipratio=1.40 / pbratio=1.30

Default : Yes

Forced : No



Audio #1

ID : 2

Format : AAC

Format/Info : Advanced Audio Codec

Format profile : LC

Codec ID : A_AAC

Duration : 1h 58mn

Bit rate : 395 Kbps

Channel(s) : 8 channels

Channel positions : Front: L C R, Side: L R, Back: L R, LFE

Sampling rate : 48.0 KHz

Frame rate : 46.875 fps (1024 spf)

Compression mode : Lossy

Delay relative to video : 20ms

Stream size : 336 MiB (12%)

Language : English

Default : No

Forced : No



Audio #2

ID : 3

Format : AAC

Format/Info : Advanced Audio Codec

Format profile : HE-AAC / LC

Codec ID : A_AAC

Duration : 1h 58mn

Bit rate : 54.0 Kbps

Channel(s) : 2 channels

Channel positions : Front: L R

Sampling rate : 48.0 KHz / 24.0 KHz

Frame rate : 23.438 fps (1024 spf)

Compression mode : Lossy

Delay relative to video : 31ms

Stream size : 45.9 MiB (2%)

Title : Commentary 1

Language : English

Default : No

Forced : No



Audio #3

ID : 4

Format : AAC

Format/Info : Advanced Audio Codec

Format profile : HE-AAC / LC

Codec ID : A_AAC

Duration : 1h 58mn

Bit rate : 52.7 Kbps

Channel(s) : 2 channels

Channel positions : Front: L R

Sampling rate : 48.0 KHz / 24.0 KHz

Frame rate : 23.438 fps (1024 spf)

Compression mode : Lossy

Delay relative to video : 31ms

Stream size : 44.8 MiB (2%)

Title : Commentary 2

Language : English

Default : No

Forced : No



Text #1

ID : 5

Format : VobSub

Muxing mode : zlib

Codec ID : S_VOBSUB

Codec ID/Info : Picture based subtitle format used on DVDs

Duration : 1h 51mn

Bit rate : 6 918 bps

Count of elements : 1337

Stream size : 5.52 MiB (0%)

Language : English

Default : No

Forced : No



Text #2

ID : 6

Format : VobSub

Muxing mode : zlib

Codec ID : S_VOBSUB

Codec ID/Info : Picture based subtitle format used on DVDs

Duration : 1h 54mn

Bit rate : 7 986 bps

Count of elements : 1322

Stream size : 6.53 MiB (0%)

Title : Commentary 1

Language : English

Default : No

Forced : No



Text #3

ID : 7

Format : VobSub

Muxing mode : zlib

Codec ID : S_VOBSUB

Codec ID/Info : Picture based subtitle format used on DVDs

Duration : 1h 56mn

Bit rate : 7 773 bps

Count of elements : 1370

Stream size : 6.45 MiB (0%)

Title : Commentary 2

Language : English

Default : No

Forced : No



Text #4

ID : 8

Format : VobSub

Muxing mode : zlib

Codec ID : S_VOBSUB

Codec ID/Info : Picture based subtitle format used on DVDs

Duration : 1h 54mn

Bit rate : 3 688 bps

Count of elements : 917

Stream size : 3.03 MiB (0%)

Language : Arabic

Default : No

Forced : No



Text #5

ID : 9

Format : VobSub

Muxing mode : zlib

Codec ID : S_VOBSUB

Codec ID/Info : Picture based subtitle format used on DVDs

Duration : 1h 54mn

Bit rate : 5 170 bps

Count of elements : 992

Stream size : 4.25 MiB (0%)

Language : Danish

Default : No

Forced : No



Text #6

ID : 10

Format : VobSub

Muxing mode : zlib

Codec ID : S_VOBSUB

Codec ID/Info : Picture based subtitle format used on DVDs

Duration : 1h 54mn

Bit rate : 5 028 bps

Count of elements : 934

Stream size : 4.13 MiB (0%)

Language : German

Default : No

Forced : No



Text #7

ID : 11

Format : VobSub

Muxing mode : zlib

Codec ID : S_VOBSUB

Codec ID/Info : Picture based subtitle format used on DVDs

Duration : 1h 54mn

Bit rate : 5 386 bps

Count of elements : 923

Stream size : 4.42 MiB (0%)

Language : Spanish

Default : No

Forced : No



Text #8

ID : 12

Format : VobSub

Muxing mode : zlib

Codec ID : S_VOBSUB

Codec ID/Info : Picture based subtitle format used on DVDs

Duration : 1h 54mn

Bit rate : 5 133 bps

Count of elements : 1072

Stream size : 4.22 MiB (0%)

Language : French

Default : No

Forced : No



Text #9

ID : 13

Format : VobSub

Muxing mode : zlib

Codec ID : S_VOBSUB

Codec ID/Info : Picture based subtitle format used on DVDs

Duration : 1h 54mn

Bit rate : 5 136 bps

Count of elements : 914

Stream size : 4.22 MiB (0%)

Language : Croatian

Default : No

Forced : No



Text #10

ID : 14

Format : VobSub

Muxing mode : zlib

Codec ID : S_VOBSUB

Codec ID/Info : Picture based subtitle format used on DVDs

Duration : 1h 54mn

Bit rate : 5 268 bps

Count of elements : 974

Stream size : 4.33 MiB (0%)

Language : Italian

Default : No

Forced : No



Text #11

ID : 15

Format : VobSub

Muxing mode : zlib

Codec ID : S_VOBSUB

Codec ID/Info : Picture based subtitle format used on DVDs

Duration : 1h 54mn

Bit rate : 5 321 bps

Count of elements : 921

Stream size : 4.37 MiB (0%)

Language : Dutch

Default : No

Forced : No



Text #12

ID : 16

Format : VobSub

Muxing mode : zlib

Codec ID : S_VOBSUB

Codec ID/Info : Picture based subtitle format used on DVDs

Duration : 1h 54mn

Bit rate : 5 228 bps

Count of elements : 911

Stream size : 4.29 MiB (0%)

Language : Norwegian Bokmal

Default : No

Forced : No



Text #13

ID : 17

Format : VobSub

Muxing mode : zlib

Codec ID : S_VOBSUB

Codec ID/Info : Picture based subtitle format used on DVDs

Duration : 1h 54mn

Bit rate : 5 758 bps

Count of elements : 1149

Stream size : 4.73 MiB (0%)

Language : Portuguese

Default : No

Forced : No



Text #14

ID : 18

Format : VobSub

Muxing mode : zlib

Codec ID : S_VOBSUB

Codec ID/Info : Picture based subtitle format used on DVDs

Duration : 1h 54mn

Bit rate : 4 721 bps

Count of elements : 918

Stream size : 3.88 MiB (0%)

Language : Finnish

Default : No

Forced : No



Text #15

ID : 19

Format : VobSub

Muxing mode : zlib

Codec ID : S_VOBSUB

Codec ID/Info : Picture based subtitle format used on DVDs

Duration : 1h 54mn

Bit rate : 4 691 bps

Count of elements : 908

Stream size : 3.85 MiB (0%)

Language : Swedish

Default : No

Forced : No



Text #16

ID : 20

Format : VobSub

Muxing mode : zlib

Codec ID : S_VOBSUB

Codec ID/Info : Picture based subtitle format used on DVDs

Duration : 1h 54mn

Bit rate : 7 798 bps

Count of elements : 1322

Stream size : 6.38 MiB (0%)

Language : German

Default : No

Forced : No



Text #17

ID : 21

Format : VobSub

Muxing mode : zlib

Codec ID : S_VOBSUB

Codec ID/Info : Picture based subtitle format used on DVDs

Duration : 1h 54mn

Bit rate : 7 481 bps

Count of elements : 1323

Stream size : 6.12 MiB (0%)

Language : Spanish

Default : No

Forced : No



Text #18

ID : 22

Format : VobSub

Muxing mode : zlib

Codec ID : S_VOBSUB

Codec ID/Info : Picture based subtitle format used on DVDs

Duration : 1h 54mn

Bit rate : 6 626 bps

Count of elements : 1322

Stream size : 5.42 MiB (0%)

Language : French

Default : No

Forced : No



Text #19

ID : 23

Format : VobSub

Muxing mode : zlib

Codec ID : S_VOBSUB

Codec ID/Info : Picture based subtitle format used on DVDs

Duration : 1h 54mn

Bit rate : 6 446 bps

Count of elements : 1322

Stream size : 5.27 MiB (0%)

Language : Italian

Default : No

Forced : No



Text #20

ID : 24

Format : VobSub

Muxing mode : zlib

Codec ID : S_VOBSUB

Codec ID/Info : Picture based subtitle format used on DVDs

Duration : 1h 56mn

Bit rate : 7 218 bps

Count of elements : 1369

Stream size : 5.99 MiB (0%)

Language : German

Default : No

Forced : No



Text #21

ID : 25

Format : VobSub

Muxing mode : zlib

Codec ID : S_VOBSUB

Codec ID/Info : Picture based subtitle format used on DVDs

Duration : 1h 56mn

Bit rate : 6 969 bps

Count of elements : 1370

Stream size : 5.78 MiB (0%)

Language : Spanish

Default : No

Forced : No



Text #22

ID : 26

Format : VobSub

Muxing mode : zlib

Codec ID : S_VOBSUB

Codec ID/Info : Picture based subtitle format used on DVDs

Duration : 1h 56mn

Bit rate : 5 545 bps

Count of elements : 1370

Stream size : 4.60 MiB (0%)

Language : French

Default : No

Forced : No



Text #23

ID : 27

Format : VobSub

Muxing mode : zlib

Codec ID : S_VOBSUB

Codec ID/Info : Picture based subtitle format used on DVDs

Duration : 1h 56mn

Bit rate : 6 393 bps

Count of elements : 1370

Stream size : 5.31 MiB (0%)

Language : Italian

Default : No

Forced : No



Text #24

ID : 28

Format : VobSub

Muxing mode : zlib

Codec ID : S_VOBSUB

Codec ID/Info : Picture based subtitle format used on DVDs

Duration : 54s 90ms

Bit rate : 2 593 bps

Count of elements : 3

Stream size : 17.1 KiB (0%)

Title : Forced

Language : German

Default : No

Forced : No



Menu

00:00:00.000 : en:Chapter 01

00:03:08.938 : en:Chapter 02

00:07:02.171 : en:Chapter 03

00:13:36.023 : en:Chapter 04

00:16:43.168 : en:Chapter 05

00:27:29.939 : en:Chapter 06

00:36:06.747 : en:Chapter 07

00:45:25.389 : en:Chapter 08

00:51:33.423 : en:Chapter 09

00:58:01.769 : en:Chapter 10

01:02:57.648 : en:Chapter 11

01:12:17.666 : en:Chapter 12

01:17:38.654 : en:Chapter 13

01:22:44.542 : en:Chapter 14

01:28:29.304 : en:Chapter 15

01:37:17.081 : en:Chapter 16

01:48:14.279 : en:Chapter 17

01:55:00.727 : en:Chapter 18

Source InformationUnique ID : 145653446995529037289398633205626119672 (0x6D93D560BA2DA84F26D54BA3E70925F8)

Complete name : Star_Trek_IV_The_Voyage_Home_t00_apekat.mkv

File size : 29.5 GiB

Duration : 1h 58mn

Overall bit rate mode : Variable

Overall bit rate : 35.6 Mbps

Trackers

Refresh Leechers : Updated October 28, 2016

1. udp://torrent.gresille.org:80/announce

2. udp://tracker.opentrackr.org:1337/announce

3. udp://tracker.coppersurfer.tk:6969/announce

Comments

You must log in to add a comment.

Embed Code

Sharing Widget

Related torrents

FILENAME SIZE SEEDS PEERS ADDED UPD
[i] STAR TREK INTO DARKNESS [2013][1080p BDRip][Dolby TrueHD][RoB][flashtorrents org]
posted by robmead in Movies - Sci-fi
9.79 GB 7031 173 3 years 9 months
[i] Star.Trek.Beyond.2016.HDTS.HC.x264.AAC-iidvd 759.3 MB 1711 300 10 months 9 months
[i] Star Trek Beyond (2016) 1080p WEB-DL - 6CH - 2.2GB - ShAaNiG 2.25 GB 1247 343 8 months 7 months
[i] Star Trek Beyond 2016 720p WEBRip 900 MB - iExTV 901.3 MB 485 78 8 months 7 months
[i] Star Trek Beyond (2016) ENG Cam V2 XviD UnKnOwN 1.51 GB 278 5 11 months 7 months
[i] Star.Trek.Into.Darkness.2013.720p.BluRay.x264-NeZu 1.29 GB 158 58 2 years 11 months
[i] Star Trek Beyond (2016) 720p WEB-DL - 1GB - ShAaNiG 1.1 GB 145 11 8 months 7 months
[i]
[i]
Star Trek Beyond 2016 CAM UnKnOwN
Movies - Action , Quality: Audio 8/10 - Video 8/10
871.3 MB 131 4 11 months 7 months
[i]
[i]
Star Trek (2009) 720p BrRip x264 - 750MB - YIFY
Movies - Misc , Quality: Audio 9/10 - Video 9/10
752.3 MB 94 25 4 years 4 weeks
[i] Star Trek: En la oscuridad SPANISH ESPAƑOL HDRip ELITETORRENT
posted by hkcrew in Movies - Misc
2.25 GB 94 5 2 years 1 year

Top Movies ( auto generated report )

FILENAME SIZE SEEDS PEERS ADDED UPD
[i] Kong Skull Island (2017) [1080p] [YTS AG] 1.81 GB 11623 10813 14 hours 12 hours
[i] Kong- Skull Island (2017) [720p] [YTS AG] 883.55 MB 9466 9488 14 hours 12 hours
[i] The Zookeeper's Wife (2017) [720p] [YTS AG] 929.77 MB 2635 2119 3 days 2 days
[i] King.Arthur.Legend.of.the.Sword.2017.1080p.KORSUB.HDRip.x264.AAC2.0-STUTTERSHIT[rarbg] 3.94 GB 1959 4344 17 hours 15 hours
[i] Apprentice (2016) [720p] [YTS AG] 715.21 MB 1351 820 2 days 1 day
[i] Cars 3 2017 TS XViD AC3-N O K 1.4 GB 1184 1399 3 days 2 days
[i] King.Arthur.Legend.of.the.Sword.2017.KORSUB.HDRip.x264-STUTTERSHIT[rarbg] 1.03 GB 1101 2249 17 hours 15 hours
[i] Apprentice (2016) [1080p] [YTS AG] 1.47 GB 1014 577 2 days 1 day
[i] Kong.Skull.Island.2017.1080p.BluRay.x264-SPARKS[EtHD].torrent 8.75 GB 942 1242 1 day 13 hours
[i] Red Dog True Blue (2016) [720p] [YTS AG] 649 MB 934 389 4 days 3 days