Warning! Use a VPN When Downloading Torrents!
Your IP Address is . Location is
Avoid LAWSUITS and FINES! Hide your IP ADDRESS with a VPN!
We strongly recommend using Trust.Zone VPN to anonymize your torrenting. It's FREE!
Get VPN Now for FREE!

Star Trek - The Motion Picture 1979 (1080p Bluray x265 HEVC 10bit AAC 7.1 Tigole) [UTR]

DOWNLOAD TORRENT

Posted on August 25, 2016 in Movies » Adventure , verified torrent

Size: 2.94 GB , Seeds: 4 , Peers: 7 ( Updated October 28, 2016 - Refresh )

* Download via Magnet Link * To download files you need a Bittorrent Client ,

Scrape History ( seeds + peers )

Internal Files

Star Trek - The Motion Picture 1979 (1080p Bluray x265 HEVC 10bit AAC 7.1 Tigole)
Deleted Scenes #1.mkv   9.48 MB
Deleted Scenes #2.mkv   3.05 MB
Special Star Trek Reunion.mkv   101.17 MB
Starfleet Academy SciSec Brief 001 - Mystery Behind V'ger.mkv   45.9 MB
TV Spots.mkv   15.33 MB
Teaser Trailer.mkv   22.13 MB
The Longest Trek - Writing The Motion Picture.mkv   111 MB
Theatrical Trailer.mkv   28.68 MB
Star Trek - The Motion Picture 1979 (1080p x265 10bit Tigole).mkv   2.61 GB

Hash Code

53695916d9958affc41b175d589f05d50a41dca3

Description

SCREENSHOT



Star Trek: The Motion Picture 1979 in 1080p, encoded with x265 in HEVC and AAC 7.1 English, with subtitles!

Encoded in 10 bit color at CRF 18.0, from a Blu-ray source, for the highest quality possible.





SCREENSHOTSCREENSHOTSCREENSHOTSCREENSHOTSCREENSHOTSCREENSHOTSCREENSHOTSCREENSHOT



Media InformationGeneral

Unique ID : 171158737671162624726763144941628931175 (0x80C3F94BC5AB45FD9F4D1D558B85BC67)

Complete name : Star Trek - The Motion Picture 1979 (1080p x265 10bit Tigole).mkv

Format : Matroska

Format version : Version 4 / Version 2

File size : 2.61 GiB

Duration : 2h 12mn

Overall bit rate : 2 835 Kbps

Movie name : Star Trek The Motion Picture

Encoded date : UTC 2016-07-19 22:33:28

Writing application : mkvmerge v9.2.0 (\'Photograph\') 64bit

Writing library : libebml v1.3.3 + libmatroska v1.4.4



Video

ID : 1

Format : HEVC

Format/Info : High Efficiency Video Coding

Format profile : Main [email protected]/* [email protected]

Codec ID : V_MPEGH/ISO/HEVC

Duration : 2h 12mn

Bit rate : 2 271 Kbps

Width : 1 920 pixels

Height : 816 pixels

Display aspect ratio : 2.35:1

Frame rate mode : Constant

Frame rate : 23.976 (24000/1001) fps

Color space : YUV

Chroma subsampling : 4:2:0

Bit depth : 10 bits

Bits/(Pixel*Frame) : 0.060

Stream size : 2.09 GiB (80%)

Writing library : x265 1.9+200-6098ba3e0cf16b11:[Windows][GCC 5.3.0][64 bit] 10bit

Encoding settings : wpp / ctu=64 / min-cu-size=8 / max-tu-size=32 / tu-intra-depth=1 / tu-inter-depth=1 / me=1 / subme=2 / merange=57 / no-rect / no-amp / max-merge=2 / temporal-mvp / no-early-skip / recursion-skip / rdpenalty=0 / no-tskip / no-tskip-fast / strong-intra-smoothing / no-lossless / no-cu-lossless / no-constrained-intra / no-fast-intra / open-gop / no-temporal-layers / interlace=0 / keyint=250 / min-keyint=23 / scenecut=40 / rc-lookahead=20 / lookahead-slices=5 / bframes=4 / bframe-bias=0 / b-adapt=2 / ref=3 / limit-refs=3 / no-limit-modes / weightp / no-weightb / aq-mode=1 / qg-size=32 / aq-strength=1.00 / cbqpoffs=0 / crqpoffs=0 / rd=3 / psy-rd=2.00 / rdoq-level=0 / psy-rdoq=0.00 / no-rd-refine / signhide / deblock=0:0 / sao / no-sao-non-deblock / b-pyramid / cutree / no-intra-refresh / rc=crf / crf=18.0 / qcomp=0.60 / qpmin=0 / qpmax=51 / qpstep=4 / ipratio=1.40 / pbratio=1.30

Default : Yes

Forced : No



Audio #1

ID : 2

Format : AAC

Format/Info : Advanced Audio Codec

Format profile : LC

Codec ID : A_AAC

Duration : 2h 12mn

Bit rate : 406 Kbps

Channel(s) : 8 channels

Channel positions : Front: L C R, Side: L R, Back: L R, LFE

Sampling rate : 48.0 KHz

Frame rate : 46.875 fps (1024 spf)

Compression mode : Lossy

Delay relative to video : 20ms

Stream size : 383 MiB (14%)

Language : English

Default : No

Forced : No



Audio #2

ID : 3

Format : AAC

Format/Info : Advanced Audio Codec

Format profile : HE-AAC / LC

Codec ID : A_AAC

Duration : 2h 12mn

Bit rate : 52.2 Kbps

Channel(s) : 2 channels

Channel positions : Front: L R

Sampling rate : 48.0 KHz / 24.0 KHz

Frame rate : 23.438 fps (1024 spf)

Compression mode : Lossy

Delay relative to video : 31ms

Stream size : 49.3 MiB (2%)

Language : English

Default : No

Forced : No



Text #1

ID : 4

Format : VobSub

Muxing mode : zlib

Codec ID : S_VOBSUB

Codec ID/Info : Picture based subtitle format used on DVDs

Duration : 2h 2mn

Bit rate : 4 754 bps

Count of elements : 1071

Stream size : 4.18 MiB (0%)

Language : English

Default : No

Forced : No



Text #2

ID : 5

Format : VobSub

Muxing mode : zlib

Codec ID : S_VOBSUB

Codec ID/Info : Picture based subtitle format used on DVDs

Duration : 2h 11mn

Bit rate : 9 568 bps

Count of elements : 1925

Stream size : 8.98 MiB (0%)

Title : Commentary

Language : English

Default : No

Forced : No



Text #3

ID : 6

Format : VobSub

Muxing mode : zlib

Codec ID : S_VOBSUB

Codec ID/Info : Picture based subtitle format used on DVDs

Duration : 6mn 52s

Bit rate : 1 247 bps

Count of elements : 20

Stream size : 62.9 KiB (0%)

Language : English

Default : No

Forced : Yes



Text #4

ID : 7

Format : VobSub

Muxing mode : zlib

Codec ID : S_VOBSUB

Codec ID/Info : Picture based subtitle format used on DVDs

Duration : 2h 7mn

Bit rate : 3 421 bps

Count of elements : 1074

Stream size : 3.12 MiB (0%)

Language : Arabic

Default : No

Forced : No



Text #5

ID : 8

Format : VobSub

Muxing mode : zlib

Codec ID : S_VOBSUB

Codec ID/Info : Picture based subtitle format used on DVDs

Duration : 2h 7mn

Bit rate : 4 611 bps

Count of elements : 1074

Stream size : 4.20 MiB (0%)

Language : Danish

Default : No

Forced : No



Text #6

ID : 9

Format : VobSub

Muxing mode : zlib

Codec ID : S_VOBSUB

Codec ID/Info : Picture based subtitle format used on DVDs

Duration : 2h 9mn

Bit rate : 5 008 bps

Count of elements : 1075

Stream size : 4.65 MiB (0%)

Language : German

Default : No

Forced : No



Text #7

ID : 10

Format : VobSub

Muxing mode : zlib

Codec ID : S_VOBSUB

Codec ID/Info : Picture based subtitle format used on DVDs

Duration : 2h 9mn

Bit rate : 4 547 bps

Count of elements : 1075

Stream size : 4.22 MiB (0%)

Language : Spanish

Default : No

Forced : No



Text #8

ID : 11

Format : VobSub

Muxing mode : zlib

Codec ID : S_VOBSUB

Codec ID/Info : Picture based subtitle format used on DVDs

Duration : 2h 9mn

Bit rate : 4 371 bps

Count of elements : 1075

Stream size : 4.06 MiB (0%)

Language : French

Default : No

Forced : No



Text #9

ID : 12

Format : VobSub

Muxing mode : zlib

Codec ID : S_VOBSUB

Codec ID/Info : Picture based subtitle format used on DVDs

Duration : 2h 7mn

Bit rate : 4 636 bps

Count of elements : 1074

Stream size : 4.22 MiB (0%)

Language : Croatian

Default : No

Forced : No



Text #10

ID : 13

Format : VobSub

Muxing mode : zlib

Codec ID : S_VOBSUB

Codec ID/Info : Picture based subtitle format used on DVDs

Duration : 2h 7mn

Bit rate : 4 597 bps

Count of elements : 1074

Stream size : 4.19 MiB (0%)

Language : Italian

Default : No

Forced : No



Text #11

ID : 14

Format : VobSub

Muxing mode : zlib

Codec ID : S_VOBSUB

Codec ID/Info : Picture based subtitle format used on DVDs

Duration : 2h 7mn

Bit rate : 4 460 bps

Count of elements : 1074

Stream size : 4.06 MiB (0%)

Language : Dutch

Default : No

Forced : No



Text #12

ID : 15

Format : VobSub

Muxing mode : zlib

Codec ID : S_VOBSUB

Codec ID/Info : Picture based subtitle format used on DVDs

Duration : 2h 7mn

Bit rate : 4 243 bps

Count of elements : 1074

Stream size : 3.86 MiB (0%)

Language : Norwegian Bokmal

Default : No

Forced : No



Text #13

ID : 16

Format : VobSub

Muxing mode : zlib

Codec ID : S_VOBSUB

Codec ID/Info : Picture based subtitle format used on DVDs

Duration : 2h 9mn

Bit rate : 4 883 bps

Count of elements : 1075

Stream size : 4.54 MiB (0%)

Language : Portuguese

Default : No

Forced : No



Text #14

ID : 17

Format : VobSub

Muxing mode : zlib

Codec ID : S_VOBSUB

Codec ID/Info : Picture based subtitle format used on DVDs

Duration : 2h 7mn

Bit rate : 3 858 bps

Count of elements : 1074

Stream size : 3.51 MiB (0%)

Language : Finnish

Default : No

Forced : No



Text #15

ID : 18

Format : VobSub

Muxing mode : zlib

Codec ID : S_VOBSUB

Codec ID/Info : Picture based subtitle format used on DVDs

Duration : 2h 7mn

Bit rate : 4 656 bps

Count of elements : 1074

Stream size : 4.24 MiB (0%)

Language : Swedish

Default : No

Forced : No



Text #16

ID : 19

Format : VobSub

Muxing mode : zlib

Codec ID : S_VOBSUB

Codec ID/Info : Picture based subtitle format used on DVDs

Duration : 2h 11mn

Bit rate : 9 658 bps

Count of elements : 1926

Stream size : 9.10 MiB (0%)

Language : German

Default : No

Forced : No



Text #17

ID : 20

Format : VobSub

Muxing mode : zlib

Codec ID : S_VOBSUB

Codec ID/Info : Picture based subtitle format used on DVDs

Duration : 2h 11mn

Bit rate : 8 955 bps

Count of elements : 1926

Stream size : 8.44 MiB (0%)

Language : Spanish

Default : No

Forced : No



Text #18

ID : 21

Format : VobSub

Muxing mode : zlib

Codec ID : S_VOBSUB

Codec ID/Info : Picture based subtitle format used on DVDs

Duration : 2h 11mn

Bit rate : 8 996 bps

Count of elements : 1926

Stream size : 8.47 MiB (0%)

Language : French

Default : No

Forced : No



Text #19

ID : 22

Format : VobSub

Muxing mode : zlib

Codec ID : S_VOBSUB

Codec ID/Info : Picture based subtitle format used on DVDs

Duration : 2h 11mn

Bit rate : 8 950 bps

Count of elements : 1927

Stream size : 8.43 MiB (0%)

Language : Italian

Default : No

Forced : No



Text #20

ID : 23

Format : VobSub

Muxing mode : zlib

Codec ID : S_VOBSUB

Codec ID/Info : Picture based subtitle format used on DVDs

Duration : 2h 6mn

Bit rate : 89 bps

Count of elements : 22

Stream size : 82.7 KiB (0%)

Title : Forced

Language : German

Default : No

Forced : No



Menu

00:00:00.000 : en:Chapter 01

00:01:41.518 : en:Chapter 02

00:08:50.905 : en:Chapter 03

00:11:49.291 : en:Chapter 04

00:20:46.203 : en:Chapter 05

00:25:12.969 : en:Chapter 06

00:28:01.179 : en:Chapter 07

00:31:31.222 : en:Chapter 08

00:38:02.822 : en:Chapter 09

00:44:36.382 : en:Chapter 10

00:48:07.759 : en:Chapter 11

00:55:28.283 : en:Chapter 12

01:01:15.380 : en:Chapter 13

01:12:20.627 : en:Chapter 14

01:17:28.852 : en:Chapter 15

01:21:55.201 : en:Chapter 16

01:27:21.319 : en:Chapter 17

01:38:14.221 : en:Chapter 18

01:46:18.205 : en:Chapter 19

01:51:56.918 : en:Chapter 20

02:08:36.250 : en:Chapter 21

Source InformationUnique ID : 275677825318726814734489522243052131083 (0xCF659E2D48DF0227FA3A513FC63E530B)

Complete name : Star_Trek_The_Motion_Picture_t01_apekat.mkv

File size : 34.8 GiB

Duration : 2h 12mn

Overall bit rate mode : Variable

Overall bit rate : 37.8 Mbps

Torrent location

http://extratorrent4-cc.unblocked.lol/torrent/5128668/Star+Trek+-+The+Motion+Picture+1979+%281080p+Bluray+x265+HEVC+10bit+AAC+7.1+Tigole%29+%5BUTR%5D.html

Trackers

Refresh Leechers : Updated October 28, 2016

1. udp://torrent.gresille.org:80/announce

2. udp://tracker.opentrackr.org:1337/announce

3. udp://tracker.coppersurfer.tk:6969/announce

Comments

You must log in to add a comment.

Embed Code

Sharing Widget

Related torrents

FILENAME SIZE SEEDS PEERS ADDED UPD
[i] Star Trek: The Motion Picture (1979) 720p BrRip x264 - YIFY 901.3 MB 23 3 4 years 1 year
[i] Star Trek I The Motion Picture ITA ENG AC3BDRip 1080p X265 ZMachine
posted by ZMachine95 in Movies - Fantasy
2.91 GB 7 1 2 years 12 months
[i] Star Trek-The Motion Pictures.Collection.1080p.BRRip.x264.AAC-m2g 41.4 GB 6 30 9 months 6 months
[i] Star.Trek.The.Motion.Picture.1979.720p.BluRay.x264-SiN [PublicHD 4.38 GB 4 1 4 years 1 year
[i] Star Trek The Motion Picture (1979)(1080p 264HD)(NL SUBS)(H33T)(Pioen) 2Lions-Team 7.49 GB 3 3 6 years 1 week
[i] Star Trek The Motion Picture REMASTERED [DVD9 Eng Spa Ita][TNTVillage]
posted by PirateBunny in Movies - Sci-fi
7.82 GB 3 2 4 years 1 year
[i] Star Trek The Motion Picture[XviD-Ita Eng Ac3 6Ch-Sub Ita][TNT Village]
posted by robbyrs in Movies - Sci-fi
1.66 GB 2 1 7 years 6 months
[i] Star Trek - Star Trek The Motion Picture *1979* [DVDRip.XviD.AC3-Zryty_TB] [Lektor PL] [Ekipa TnT] 1.37 GB 1 0 5 years 1 year
[i] Star Trek I, Il film - Star Trek I, The motion picture (1979) [BDmux 720p - H264 - Ita Eng Aac - Sub Ita Eng]
posted by FatMan in Movies - Sci-fi
943.2 MB 1 0 1 year 8 months
[i] Star Trek Original Motion Picture Collection.2009.BDRip.X264-TLF 8.29 GB 0 0 7 years 6 months

Top Movies ( auto generated report )

FILENAME SIZE SEEDS PEERS ADDED UPD
[i] Monster Trucks (2016) [720p] [YTS AG] 770.79 MB 4672 3999 1 day 16 hours
[i] Monster Trucks (2016) [1080p] [YTS AG] 1.59 GB 3738 3168 1 day 16 hours
[i] Monster.Trucks.2016.480p.HDRip.XViD.AC3-ETRG 1.39 GB 3667 2874 2 days 6 hours
[i] Warrior s Gate (2016) [720p] [YTS AG] 796.33 MB 2850 2297 1 day 16 hours
[i] The.Rift.2016.HDRip.XViD-ETRG 710.9 MB 2495 1636 3 days 2 days
[i] Warrior s Gate (2016) [1080p] [YTS AG] 1.64 GB 2268 1573 1 day 16 hours
[i] The.Bye.Bye.Man.2017.HDRip.XViD-ETRG 707.1 MB 2108 1587 2 days 1 day
[i] Monster.Trucks.2016.1080p.WEB-DL.DD5.1.H264-FGT 3.61 GB 1299 610 2 days 6 hours
[i] Vengeance- A Love Story (2017) [720p] [YTS AG] 721.47 MB 1854 883 2 days 12 hours
[i] The Bye Bye Man (2017) [720p] [YTS AG] 740.34 MB 1753 1346 1 day 16 hours