Bit Torrent Scene a public file sharing platform Home Categories Blog About

advertising ( remove )

Suicide Squad 2016 480p - HDTS - x264 - AAC - Zi$t-WWRG

DOWNLOAD TORRENT

Posted on August 16, 2016 in Movies » Action , verified torrent

Size: 714.3 MB , Seeds: 399 , Peers: 307 ( Updated August 17, 2016 - Refresh )

* Download via Magnet Link * To download files you need a Bittorrent Client ,

advertising ( remove )

External Info

Trailer | Wikipedia | Other Info

Internal Files

Suicide Squad 2016 480p - HDTS - x264 - AAC - Zi$t-WWRG
Sample.mp4   9.43 MB
Suicide Squad 2016 480p - HDTS - x264 - AAC - Zi$t-WWRG.mp4   703.81 MB

Hash Code

4d393c7a68af541c35152b858e5bd51fe6626f81

Description

Note:i Just varnished the Video

SOURCE:Thanks to CPG



SCREENSHOT

SCREENSHOT

SCREENSHOT

SCREENSHOT

SCREENSHOT

SCREENSHOT

SCREENSHOT

SCREENSHOT

SCREENSHOT

SCREENSHOT

SCREENSHOT



General

Complete name : Suicide Squad 2016

Format : MPEG-4

Format profile : Base Media / Version 2

Codec ID : mp42

File size : 704 MiB

Duration : 1h 53mn

Overall bit rate mode : Variable

Overall bit rate : 867 Kbps





Video

ID : 1

Format : AVC

Format/Info : Advanced Video Codec

Format profile : [email protected]/* */

Format settings, CABAC : Yes

Format settings, ReFrames : 4 frames

Codec ID : avc1

Codec ID/Info : Advanced Video Coding

Duration : 1h 53mn

Bit rate : 667 Kbps

Width : 900 pixels

Height : 400 pixels

Display aspect ratio : 2.25:1

Frame rate mode : Constant

Frame rate : 25.000 fps

Color space : YUV

Chroma subsampling : 4:2:0

Bit depth : 8 bits

Scan type : Progressive

Bits/(Pixel*Frame) : 0.074

Stream size : 542 MiB (77%)

Writing library : x264 core 142 r2479 dd79a61



Audio

ID : 2

Format : AAC

Format/Info : Advanced Audio Codec

Format profile : LC

Codec ID : 40

Duration : 1h 53mn

Bit rate mode : Variable

Bit rate : 192 Kbps

Channel(s) : 2 channels

Channel positions : Front: L R

Sampling rate : 48.0 KHz

Compression mode : Lossy

Stream size : 156 MiB (22%)

Title : Stereo / Stereo

Language : English

Torrent location

https://peertorrent.com/torrent/5110094/Suicide+Squad+2016+480p+-+HDTS+-+x264+-+AAC+-+Zi%24t-WWRG.html

Scrape History ( seeds + peers )

Trackers

Refresh Leechers : Updated August 17, 2016

1. udp://torrent.gresille.org:80/announce

2. udp://torrent.gresille.org:80/announce

3. https://retracker.krs-ix.ru/announce

4. https://retracker.krs-ix.ru/announce.php

5. https://pow7.com:80/announce

6. https://tracker.tfile.me/announce

7. https://www.wareztorrent.com/announce

8. udp://tracker.leechers-paradise.org:6969/announce

9. udp://tracker.aletorrenty.pl:2710/announce

10. udp://tracker.eddie4.nl:6969/announce

11. udp://tracker.opentrackr.org:1337/announce

Comments

You must log in to add a comment.

Embed Code

Sharing Widget

Top Movies ( auto generated report )

FILENAME SIZE SEEDS PEERS ADDED UPD
[i] Now.You.See.Me.2.2016.1080p.BluRay.x264.AC3-JYK 2.93 GB 8132 5852 2 days 1 day
[i] Blood.Father.2016.HDRip.XViD-ETRG 711.3 MB 7851 3968 2 days 18 hours
[i] The Conjuring 2 (2016) 720p BluRay - 1.2GB - ShAaNiG 1.2 GB 7125 5490 1 day 19 hours
[i] Jason.Bourne.720p.HDTC.X264-NUKU
Movies - Action , Quality: Audio 8/10 - Video 8/10
2.49 GB 8020 6984 8 hours 5 hours
[i] Jason Bourne (2016) 720p HDTC 850MB - MkvCage 904.3 MB 4312 2138 1 day 14 hours
[i] Blood.Father.2016.720p.WEBRip.x264.AAC-ETRG 662.3 MB 4159 2580 1 day 9 hours
[i] War Dogs 2016 HD-TS x264-CPG 2.1 GB 3948 3105 1 day 8 hours
[i] The.Conjuring.2.2016.720p.BRRip.x264.AAC-ETRG 1004.3 MB 3885 3190 1 day 8 hours
[i] Our.Kind.of.Traitor.2016.HDRip.XviD.AC3-EVO 1.41 GB 3922 4367 8 hours 5 hours
[i] Genius.2016.HDRip.XviD.AC3-EVO 1.39 GB 2250 1125 4 days 3 days
advertising ( remove )