Bit Torrent Scene a public file sharing platform Home Categories Blog About

advertising ( remove )

Suicide Squad 2016 English HD-CAM - x264 - AAC - Zi$t

DOWNLOAD TORRENT

Posted on August 7, 2016 in Movies » Action , verified torrent

Size: 716.3 MB , Seeds: 1571 , Peers: 326 ( Updated August 21, 2016 - Refresh )

* Download via Magnet Link * To download files you need a Bittorrent Client ,

advertising ( remove )

External Info

Trailer | Wikipedia | Other Info

Internal Files

Suicide Squad 2016 English HD-CAM - x264 - AAC - Zi$t
Sample.mp4   4.02 MB
Suicide Squad 2016 English HD-CAM - x264 - AAC - Zi$t.mp4   711.36 MB

Hash Code

752dded846ef255fb80180269ee2bd56fb9908f0

Description



SCREENSHOT



Note:This is not the same source with Cinema Black Bars Recording.go for sample

Split, rotated,crop,resize, enhance video quality & finally merged into 1 file.audio is fine.Sample included.Enjoy & dont forget to rate comment





SCREENSHOT SCREENSHOT SCREENSHOT SCREENSHOT SCREENSHOT SCREENSHOT SCREENSHOT



General

Complete name : Suicide Squad 2016

Format : MPEG-4

Format profile : Base Media / Version 2

Codec ID : mp42

File size : 711 MiB

Duration : 1h 48mn

Overall bit rate mode : Variable

Overall bit rate : 921 Kbps



Video

ID : 1

Format : AVC

Format/Info : Advanced Video Codec

Format profile : [email protected]/* */

Format settings, CABAC : Yes

Format settings, ReFrames : 4 frames

Codec ID : avc1

Codec ID/Info : Advanced Video Coding

Duration : 1h 48mn

Bit rate : 720 Kbps

Width : 600 pixels

Height : 270 pixels

Display aspect ratio : 2.224

Frame rate mode : Variable

Frame rate : 25.000 fps

Minimum frame rate : 12.500 fps

Maximum frame rate : 25.000 fps

Color space : YUV

Chroma subsampling : 4:2:0

Bit depth : 8 bits

Scan type : Progressive

Bits/(Pixel*Frame) : 0.178

Stream size : 556 MiB (78%)

Writing library : x264 core 142 r2479 dd79a61





Audio

ID : 2

Format : AAC

Format/Info : Advanced Audio Codec

Format profile : LC

Codec ID : 40

Duration : 1h 48mn

Bit rate mode : Variable

Bit rate : 192 Kbps

Channel(s) : 2 channels

Channel positions : Front: L R

Sampling rate : 48.0 KHz

Compression mode : Lossy

Stream size : 149 MiB (21%)

Title : Stereo / Stereo

Language : English

Torrent location

https://peertorrent.com/torrent/5093555/Suicide+Squad+2016++English+HD-CAM+-+x264+-+AAC+-+Zi%24t.html

Scrape History ( seeds + peers )

Trackers

Refresh Leechers : Updated August 21, 2016

1. udp://torrent.gresille.org:80/announce

2. udp://torrent.gresille.org:80/announce

3. https://retracker.krs-ix.ru/announce

4. https://retracker.krs-ix.ru/announce.php

5. https://pow7.com:80/announce

6. https://tracker.tfile.me/announce

7. https://www.wareztorrent.com/announce

8. udp://tracker.leechers-paradise.org:6969/announce

9. udp://tracker.aletorrenty.pl:2710/announce

10. udp://tracker.eddie4.nl:6969/announce

11. udp://tracker.opentrackr.org:1337/announce

Comments

You must log in to add a comment.

Embed Code

Sharing Widget

Related torrents

FILENAME SIZE SEEDS PEERS ADDED UPD
[i] Suicide Squad - (2016) - English - CAM - x264 - AAC - Makintos13 699.15 MB 190 18 3 weeks 1 week

Top Movies ( auto generated report )

FILENAME SIZE SEEDS PEERS ADDED UPD
[i] Now.You.See.Me.2.2016.1080p.BluRay.x264.AC3-JYK 2.93 GB 8132 5852 1 day 21 hours
[i] Blood.Father.2016.HDRip.XViD-ETRG 711.3 MB 7851 3968 2 days 12 hours
[i] The Conjuring 2 (2016) 720p BluRay - 1.2GB - ShAaNiG 1.2 GB 7125 5490 1 day 13 hours
[i] Jason.Bourne.720p.HDTC.X264-NUKU 2.49 GB 8020 6984 2 hours 1 min
[i] Jason Bourne (2016) 720p HDTC 850MB - MkvCage 904.3 MB 4312 2138 1 day 8 hours
[i] Blood.Father.2016.720p.WEBRip.x264.AAC-ETRG 662.3 MB 4159 2580 1 day 3 hours
[i] War Dogs 2016 HD-TS x264-CPG 2.1 GB 3948 3105 1 day 2 hours
[i] The.Conjuring.2.2016.720p.BRRip.x264.AAC-ETRG 1004.3 MB 3885 3190 1 day 3 hours
[i] Our.Kind.of.Traitor.2016.HDRip.XviD.AC3-EVO 1.41 GB 3922 4367 2 hours 1 min
[i] Genius.2016.HDRip.XviD.AC3-EVO 1.39 GB 2250 1125 4 days 3 days
advertising ( remove )