Suicide Squad 2016 English HD-CAM - x264 - AAC - Zi$t

DOWNLOAD TORRENT

Posted on August 7, 2016 in Movies » Action , verified torrent

Size: 716.3 MB , Seeds: 420 , Peers: 48 ( Updated November 14, 2016 - Refresh )

* Download via Magnet Link * To download files you need a Bittorrent Client ,

Scrape History ( seeds + peers )

Internal Files

Suicide Squad 2016 English HD-CAM - x264 - AAC - Zi$t
Sample.mp4   4.02 MB
Suicide Squad 2016 English HD-CAM - x264 - AAC - Zi$t.mp4   711.36 MB

Hash Code

752dded846ef255fb80180269ee2bd56fb9908f0

Description



SCREENSHOT



Note:This is not the same source with Cinema Black Bars Recording.go for sample

Split, rotated,crop,resize, enhance video quality & finally merged into 1 file.audio is fine.Sample included.Enjoy & dont forget to rate comment





SCREENSHOT SCREENSHOT SCREENSHOT SCREENSHOT SCREENSHOT SCREENSHOT SCREENSHOT



General

Complete name : Suicide Squad 2016

Format : MPEG-4

Format profile : Base Media / Version 2

Codec ID : mp42

File size : 711 MiB

Duration : 1h 48mn

Overall bit rate mode : Variable

Overall bit rate : 921 Kbps



Video

ID : 1

Format : AVC

Format/Info : Advanced Video Codec

Format profile : [email protected]/* */

Format settings, CABAC : Yes

Format settings, ReFrames : 4 frames

Codec ID : avc1

Codec ID/Info : Advanced Video Coding

Duration : 1h 48mn

Bit rate : 720 Kbps

Width : 600 pixels

Height : 270 pixels

Display aspect ratio : 2.224

Frame rate mode : Variable

Frame rate : 25.000 fps

Minimum frame rate : 12.500 fps

Maximum frame rate : 25.000 fps

Color space : YUV

Chroma subsampling : 4:2:0

Bit depth : 8 bits

Scan type : Progressive

Bits/(Pixel*Frame) : 0.178

Stream size : 556 MiB (78%)

Writing library : x264 core 142 r2479 dd79a61





Audio

ID : 2

Format : AAC

Format/Info : Advanced Audio Codec

Format profile : LC

Codec ID : 40

Duration : 1h 48mn

Bit rate mode : Variable

Bit rate : 192 Kbps

Channel(s) : 2 channels

Channel positions : Front: L R

Sampling rate : 48.0 KHz

Compression mode : Lossy

Stream size : 149 MiB (21%)

Title : Stereo / Stereo

Language : English

Trackers

Refresh Leechers : Updated November 14, 2016

1. udp://torrent.gresille.org:80/announce

2. udp://torrent.gresille.org:80/announce

3. http://retracker.krs-ix.ru/announce

4. http://retracker.krs-ix.ru/announce.php

5. http://pow7.com:80/announce

6. http://tracker.tfile.me/announce

7. http://www.wareztorrent.com/announce

8. udp://tracker.leechers-paradise.org:6969/announce

9. udp://tracker.aletorrenty.pl:2710/announce

10. udp://tracker.eddie4.nl:6969/announce

11. udp://tracker.opentrackr.org:1337/announce

Comments

You must log in to add a comment.

Embed Code

Sharing Widget

Related torrents

FILENAME SIZE SEEDS PEERS ADDED UPD
[i] Suicide Squad - Extended (2016).720p.H264.Italian.English.Ac3.5.1.iCV-MIRCrew
posted by robbyrs in Movies - Action
4.49 GB 74 6 7 months 1 month
[i] Suicide Squad - (2016) - English - CAM - x264 - AAC - Makintos13 699.15 MB 31 3 10 months 7 months

Top Movies ( auto generated report )

FILENAME SIZE SEEDS PEERS ADDED UPD
[i] Kong Skull Island (2017) [1080p] [YTS AG] 1.81 GB 11002 4730 3 days 1 day
[i] Kong- Skull Island (2017) [720p] [YTS AG] 883.55 MB 9677 9528 3 days 2 days
[i] King.Arthur.Legend.of.the.Sword.2017.1080p.KORSUB.HDRip.x264.AAC2.0-STUTTERSHIT[rarbg] 3.94 GB 8664 6520 3 days 2 days
[i] King.Arthur.Legend.of.the.Sword.2017.KORSUB.HDRip.x264-STUTTERSHIT[rarbg] 1.03 GB 4512 2499 3 days 2 days
[i] Extortion (2017) [720p] [YTS AG] 807.26 MB 1988 1178 1 day 15 hours
[i] King.Arthur.Legend.of.the.Sword.2017.720p.HC.HDRip.X264.AC3-EVO 2.81 GB 1618 1103 3 days 2 days
[i] Transformers The Last Knight 2017 HDTS x264 KOSHARA 1.37 GB 1578 381 3 days 6 hours
[i] Extortion (2017) [1080p] [YTS AG] 1.67 GB 1554 884 1 day 15 hours
[i] Moontrap Target Earth (2017) [720p] [YTS AG] 627.54 MB 1505 862 3 days 2 days
[i] Apprentice (2016) [720p] [YTS AG] 715.21 MB 1351 820 5 days 4 days