Suicide Squad 2016 HDTS x264-BiGDADDYVAiN

DOWNLOAD TORRENT

Posted on August 15, 2016 in Movies » Action , verified torrent

Size: 1.67 GB , Seeds: 794 , Peers: 253 ( Updated September 18, 2016 - Refresh )

* Download via Magnet Link * To download files you need a Bittorrent Client ,

Scrape History ( seeds + peers )

Internal Files

Suicide.Squad.2016.HDTS.x264-BiGDADDYVAiN
SAMPLE 1.mkv   11.84 MB
SAMPLE 2.mkv   18.36 MB
Suicide.Squad.2016.HDTS.x264-BiGDADDYVAiN.mkv   1.64 GB
VAiN.nfo   3.51 KB

Hash Code

40e89a6cd57f4033b9f19fc8d88f661f4752b846

Description

Suicide Squad 2016 HDTS x264-BiGDADDYVAiN



SCREENSHOT



P R E S E N T S . . . .



Suicide.Squad.2016.HDTS.x264-BiGDADDYVAiN



iMDB........: http://www.imdb.com/title/tt1386697/







T E C H N i C A L . i N F O . . .



Basic Information

Format : Matroska

Format version : Version 4 / Version 2

File size : 1.64 GiB

Duration : 1 h 53 min

Overall bit rate mode : Variable

Overall bit rate : 2 069 kb/s

Encoded date : UTC 2016-08-14 19:10:20

Writing application : mkvmerge v8.3.0 ('Over the Horizon') 64bit

Writing library : libebml v1.3.1 + libmatroska v1.4.2



Video

ID : 1

Format : AVC

Format/Info : Advanced Video Codec

Format profile : [email protected]/* */

Format settings, CABAC : Yes

Format settings, ReFrames : 3 frames

Codec ID : V_MPEG4/ISO/AVC

Duration : 1 h 53 min

Bit rate mode : Variable

Bit rate : 1 875 kb/s

Maximum bit rate : 40.0 Mb/s

Width : 704 pixels

Height : 288 pixels

Display aspect ratio : 2.40:1

Frame rate mode : Constant

Frame rate : 25.000 FPS

Color space : YUV

Chroma subsampling : 4:2:0

Bit depth : 8 bits

Scan type : Progressive

Bits/(Pixel*Frame) : 0.370

Stream size : 1.49 GiB (91%)

Writing library : x264 core 148 r2692 64f4e24

Default : Yes

Forced : No

Color range : Full

Color primaries : BT.709

Transfer characteristics : BT.709

Matrix coefficients : BT.709



Audio

ID : 2

Format : MPEG Audio

Format version : Version 1

Format profile : Layer 3

Mode : Joint stereo

Mode extension : MS Stereo

Codec ID : A_MPEG/L3

Codec ID/Hint : MP3

Duration : 1 h 53 min

Bit rate mode : Constant

Bit rate : 192 kb/s

Channel(s) : 2 channels

Sampling rate : 44.1 kHz

Frame rate : 38.281 FPS (1152 spf)

Compression mode : Lossy

Stream size : 156 MiB (9%)









E N C O D E R S . N O T E S . . .







SOURCE......: ViDEO...CPG

............: AUDiO...CPG

SAMPLE......: Yippers

ADDED NOTE..: well took the cpg release as needed sum poo shining... no offense just a different set of eyes. resized, cropped and chopped added the ol' shiner filters :wink: then took the line audio which lacked life and sprayed it too down with the poo filter... now what we have is a diamond made from the turd... :shit:



Screens:



SCREENSHOT SCREENSHOT SCREENSHOT SCREENSHOT SCREENSHOT SCREENSHOT

Trackers

Refresh Leechers : Updated September 18, 2016

1. udp://tracker.coppersurfer.tk:6969/announce

2. udp://tracker.coppersurfer.tk:6969

3. udp://tracker.opentrackr.org:1337/announce

4. udp://tracker.leechers-paradise.org:6969/announce

5. udp://eddie4.nl:6969/announce

6. udp://tracker.leechers-paradise.org:6969

7. udp://zer0day.ch:1337/announce

8. udp://tracker.aletorrenty.pl:2710/announce

9. udp://p4p.arenabg.ch:1337/announce

10. udp://9.rarbg.me:2710/announce

11. udp://tracker.sktorrent.net:6969/announce

12. udp://explodie.org:6969/announce

13. udp://tracker.trackerfix.com:80/announce

14. udp://9.rarbg.to:2710/announce

15. udp://tracker.piratepublic.com:1337/announce

Comments

You must log in to add a comment.

Embed Code

Sharing Widget

Related torrents

FILENAME SIZE SEEDS PEERS ADDED UPD
[i] Suicide Squad (2016) HDTS - 700MB - ShAaNiG 700.3 MB 1373 194 10 months 10 months
[i] Suicide Squad 2016 HDTS AC3 2 0 x264-BDP 2.09 GB 243 91 10 months 9 months
[i] Suicide Squad (2016) HDTS 850MB - MkvCage 853.3 MB 230 111 10 months 9 months
[i] Suicide.Squad.2016.HDTS.x264.800MB.Makintos13 803.65 MB 211 35 10 months 10 months
[i] Suicide.Squad.2016.HDTS.x264-BiGDADDYVAiN[PRiME] 1.68 GB 83 63 10 months 9 months
[i] Suicide Squad 2016 HDTS x264-BiGDADDYVAiN 1.67 GB 59 37 10 months 9 months
[i] Suicide Squad 2016 480p - HDTS - x264 - AAC - Zi$t-WWRG 714.3 MB 54 20 10 months 9 months
[i] Suicide.Squad.2016.HDTS.550MB.Ganool 551.3 MB 31 12 10 months 10 months
[i] Suicide.Squad.2016.HDTS.x264-BiGDADDYVAiN.. 1.67 GB 6 7 10 months 9 months

Top Movies ( auto generated report )

FILENAME SIZE SEEDS PEERS ADDED UPD
[i] Kong Skull Island (2017) [1080p] [YTS AG] 1.81 GB 11002 4730 4 days 2 days
[i] Kong- Skull Island (2017) [720p] [YTS AG] 883.55 MB 9677 9528 4 days 3 days
[i] King.Arthur.Legend.of.the.Sword.2017.1080p.KORSUB.HDRip.x264.AAC2.0-STUTTERSHIT[rarbg] 3.94 GB 8296 4447 4 days 17 hours
[i] King.Arthur.Legend.of.the.Sword.2017.KORSUB.HDRip.x264-STUTTERSHIT[rarbg] 1.03 GB 4512 2499 4 days 3 days
[i] Extortion (2017) [720p] [YTS AG] 807.26 MB 1988 1178 2 days 1 day
[i] Smurfs.The.Lost.Village.2017.1080p.WEB-DL.DD5.1.H264-FGT- rarbg.to .torrent 3.44 GB 1621 334 20 hours 18 hours
[i] King.Arthur.Legend.of.the.Sword.2017.720p.HC.HDRip.X264.AC3-EVO 2.81 GB 1618 1103 4 days 3 days
[i] Transformers The Last Knight 2017 HDTS x264 KOSHARA 1.37 GB 1578 381 4 days 1 day
[i] Extortion (2017) [1080p] [YTS AG] 1.67 GB 1554 884 2 days 1 day
[i] Moontrap Target Earth (2017) [720p] [YTS AG] 627.54 MB 1505 862 4 days 3 days