Bit Torrent Scene a public file sharing platform Home Categories Blog About

advertising ( remove )

Sundown.2016.1080p.WEB-DL.DD5.1.H264-FGT

DOWNLOAD TORRENT

Posted on August 16, 2016 in Movies » Romance , verified torrent

Size: 3.5 GB , Seeds: 1039 , Peers: 1201 ( Updated August 16, 2016 - Refresh )

* Download via Magnet Link * To download files you need a Bittorrent Client ,

advertising ( remove )

External Info

Trailer | Wikipedia | Other Info

Internal Files

Sundown.2016.1080p.WEB-DL.DD5.1.H264-FGT
English.srt   111.67 KB
RARBG.com.txt   34 Byte
Sundown.2016.1080p.WEB-DL.DD5.1.H264-FGT.mkv   3.5 GB
Sundown.2016.1080p.WEB-DL.DD5.1.H264-FGT.nfo   4.35 KB

Hash Code

fb61428c9fa082ed2ce414559702e3a9c29d5adc

Description

====================================================================

Sundown.2016.1080p.WEB-DL.DD5.1.H264-FGT

====================================================================

SCREENSHOT

====================================================================

====================================================================



SCREENSHOT



Video

ID : 1

Format : AVC

Format/Info : Advanced Video Codec

Format profile : [email protected]/* */

Format settings, CABAC : Yes

Format settings, ReFrames : 5 frames

Codec ID : V_MPEG4/ISO/AVC

Duration : 1h 43mn

Bit rate : 4 349 Kbps

Width : 1 908 pixels

Height : 792 pixels

Display aspect ratio : 2.40:1

Frame rate mode : Constant

Frame rate : 23.976 (24000/1001) fps

Color space : YUV

Chroma subsampling : 4:2:0

Bit depth : 8 bits

Scan type : Progressive

Bits/(Pixel*Frame) : 0.120

Stream size : 3.15 GiB (90%)

Title : Sundown.2016.1080p.WEB-DL.DD5.1.H264-FGT

Language : English

Default : Yes

Forced : No

Color range : Limited

Color primaries : BT.709

Transfer characteristics : BT.709

Matrix coefficients : BT.709




====================================================================

Audio

ID : 2

Format : AC-3

Format/Info : Audio Coding 3

Mode extension : CM (complete main)

Format settings, Endianness : Big

Codec ID : A_AC3

Duration : 1h 43mn

Bit rate mode : Constant

Bit rate : 384 Kbps

Channel(s) : 6 channels

Channel positions : Front: L C R, Side: L R, LFE

Sampling rate : 48.0 KHz

Frame rate : 31.250 fps (1536 spf)

Compression mode : Lossy

Stream size : 285 MiB (8%)

Title : Sundown.2016.1080p.WEB-DL.DD5.1.H264-FGT

Language : English

Default : Yes

Forced : No




====================================================================

Text

ID : 3

Format : UTF-8

Codec ID : S_TEXT/UTF8

Codec ID/Info : UTF-8 Plain Text

Language : English

Default : Yes

Forced : No


====================================================================

Menu

00:00:00.000 : en:1

00:03:28.000 : en:2

00:10:00.000 : en:3

00:18:21.000 : en:4

00:27:39.000 : en:5

00:37:31.000 : en:6

00:47:49.000 : en:7

00:57:10.000 : en:8

01:08:15.000 : en:9

01:16:30.000 : en:10

01:25:45.000 : en:11

01:35:59.000 : en:12




====================================================================

====================================================================



SCREENSHOT

SCREENSHOT

SCREENSHOT

SCREENSHOT

SCREENSHOT

SCREENSHOT

SCREENSHOT

====================================================================

Greetz To: SaM |oziman|juggs|LRS|SureNdrA|Psix|Masta|MgB|3Li|tomcat12|BADASSMEDIA|OZLEM|ETRG and Other Admins of Extratorrent|.



====================================================================

Torrent location

https://peertorrent.com/torrent/5110378/Sundown.2016.1080p.WEB-DL.DD5.1.H264-FGT.html

Scrape History ( seeds + peers )

Trackers

Refresh Leechers : Updated August 16, 2016

1. https://tracker.trackerfix.com:80/announce

2. udp://9.rarbg.me:2710/announce

3. udp://9.rarbg.to:2710/announce

4. udp://tracker.coppersurfer.tk:6969/announce

5. udp://tracker.coppersurfer.tk:6969

6. udp://eddie4.nl:6969/announce

7. udp://tracker.leechers-paradise.org:6969/announce

8. udp://tracker.opentrackr.org:1337/announce

9. udp://9.rarbg.me:2710/announce

10. udp://9.rarbg.to:2710/announce

11. udp://thetracker.org:80/announce

12. udp://tracker.aletorrenty.pl:2710/announce

13. udp://p4p.arenabg.ch:1337/announce

14. udp://explodie.org:6969/announce

15. udp://tracker.piratepublic.com:1337/announce

16. udp://torrent.gresille.org:80/announce

17. udp://tracker.sktorrent.net:6969/announce

Comments

You must log in to add a comment.

Embed Code

Sharing Widget

Related torrents

FILENAME SIZE SEEDS PEERS ADDED UPD
[i] Sundown.2016.1080p.WEB-DL.DD5.1.H264-FGT[EtHD] 3.5 GB 20 4 1 week 5 days

Top Movies ( auto generated report )

FILENAME SIZE SEEDS PEERS ADDED UPD
[i] Now.You.See.Me.2.2016.1080p.BluRay.x264.AC3-JYK 2.93 GB 8132 5852 1 day 19 hours
[i] Blood.Father.2016.HDRip.XViD-ETRG 711.3 MB 7851 3968 2 days 11 hours
[i] The Conjuring 2 (2016) 720p BluRay - 1.2GB - ShAaNiG 1.2 GB 7125 5490 1 day 11 hours
[i] Jason.Bourne.720p.HDTC.X264-NUKU 2.49 GB 6720 6287 49 min 49 min
[i] Jason Bourne (2016) 720p HDTC 850MB - MkvCage 904.3 MB 4312 2138 1 day 7 hours
[i] Blood.Father.2016.720p.WEBRip.x264.AAC-ETRG 662.3 MB 4159 2580 1 day 1 hour
[i] War Dogs 2016 HD-TS x264-CPG 2.1 GB 3948 3105 1 day 53 min
[i] The.Conjuring.2.2016.720p.BRRip.x264.AAC-ETRG 1004.3 MB 3885 3190 1 day 1 hour
[i] Our.Kind.of.Traitor.2016.HDRip.XviD.AC3-EVO 1.41 GB 3495 4461 48 min 48 min
[i] Genius.2016.HDRip.XviD.AC3-EVO 1.39 GB 2250 1125 4 days 3 days
advertising ( remove )