Surrogates (2009)[BRRip 1080p x264 by alE13 AC3/DTS][Lektor i Napisy PL/Eng[Eng]

DOWNLOAD TORRENT

Posted by alE13 •1549 on August 14, 2016 in Movies » Sci-Fi , verified torrent

Size: 7.97 GB , Seeds: 2 , Peers: 0 ( Updated September 17, 2016 - Refresh )

* Download via Magnet Link * To download files you need a Bittorrent Client ,

Scrape History ( seeds + peers )

Internal Files

Surrogates (2009)-alE13
Nostalgie.jpg   138.36 KB
Torrent downloaded from alE13 torrents at BTScene.org.txt   120 Byte
Torrent downloaded from demonoid.pw.txt   46 Byte
Torrent downloaded from - www.aletorrenty.pl   43 Byte
Surrogates (2009)-alE13.rar   23.22 KB
Surrogates (2009)-alE13.mkv   7.9 GB
sample.mkv   71.09 MB
cover.jpg   1.14 MB
poster.jpg   169 KB
txt.jpg   118.29 KB

Hash Code

e98723095936a9714b59c89c93a73f02e631e3e5

Description

SCREENSHOT

http://www.filmweb.pl/film/Surogaci-2009-430428
http://www.imdb.com/title/tt0986263/

reżyseria: Jonathan Mostow
scenariusz: Michael FerrisJohn Brancato
gatunek: Thriller.Sci-Fi
produkcja: USA
premiera: 24-09-2009
muzyka: Richard Marvin
zdjęcia: Oliver Wood
czas: 1h 28mn

opis:

Set in a futuristic world where humans live in isolation and interact through surrogate robots,
a cop is forced to leave his home for the first time in years in order to investigate the murders
of others' surrogates.

Świat przyszłości. Ludzie żyją w całkowitej izolacji, a jedyny kontakt między nimi następuje za
pomocą robotów, które są lepszymi wersjami ich samych. Agent FBI (Bruce Willis), a właściwie jego
elektroniczny zastępca, pracuje w wydziale zabójstw. Pewnego dnia zostaje zmuszony jednak do dość
ryzykownego wyjścia z domu. Nie ma jednak innej możliwości, bo tylko on sam jest w stanie zapobiec
niebezpiecznemu spiskowi i serii tajemniczych morderstw.

SCREENSHOT
SCREENSHOT
SCREENSHOT
SCREENSHOT

obsada:

Bruce Willis, Radha Mitchell, Ving Rhames

dane techniczne:

Surrogates (2009)-alE13.mkv
Format : Matroska
Format version : Version 4 / Version 2
File size : 7.90 GiB
Duration : 1h 28mn
Overall bit rate : 12.8 Mbps
Movie name : Surrogates (2009)-alE13
Encoded date : UTC 2016-08-14 05:45:03
Writing application : mkvmerge v8.1.0 ('Psychedelic Postcard') 64bit
Writing library : libebml v1.3.1 + libmatroska v1.4.2
Cover : Yes
Attachments : cover.jpg

Video
ID : 1
Format : AVC
Format/Info : Advanced Video Codec
Format profile : [email protected]
Format settings, CABAC : Yes
Format settings, ReFrames : 2 frames
Codec ID : V_MPEG4/ISO/AVC
Duration : 1h 28mn
Bit rate : 8 213 Kbps
Width : 1 920 pixels
Height : 800 pixels
Display aspect ratio : 2.40:1
Frame rate mode : Constant
Frame rate : 23.976 (24000/1001) fps
Color space : YUV
Chroma subsampling : 4:2:0
Bit depth : 8 bits
Scan type : Progressive
Bits/(Pixel*Frame) : 0.223
Stream size : 5.08 GiB (64%)
Title : Surrogates (2009)-alE13
Writing library : x264 core 142
Default : Yes
Forced : No
Color range : Limited
Color primaries : BT.709
Transfer characteristics : BT.709
Matrix coefficients : BT.709

Audio #1
ID : 2
Format : AC-3
Format/Info : Audio Coding 3
Mode extension : CM (complete main)
Format settings, Endianness : Big
Codec ID : A_AC3
Duration : 1h 28mn
Bit rate mode : Constant
Bit rate : 448 Kbps
Channel(s) : 6 channels
Channel positions : Front: L C R, Side: L R, LFE
Sampling rate : 48.0 KHz
Frame rate : 31.250 fps (1536 spf)
Compression mode : Lossy
Stream size : 284 MiB (4%)
Title : Surrogates (2009)-alE13
Language : English
Default : No
Forced : No

Audio #2
ID : 3
Format : DTS
Format/Info : Digital Theater Systems
Format profile : MA / Core
Mode : 16
Format settings, Endianness : Big
Codec ID : A_DTS
Duration : 1h 28mn
Bit rate mode : Variable / Constant
Bit rate : 3 705 Kbps / 1 509 Kbps
Channel(s) : 6 channels
Channel positions : Front: L C R, Side: L R, LFE
Sampling rate : 48.0 KHz
Frame rate : 93.750 fps (512 spf)
Bit depth : 24 bits
Compression mode : Lossless / Lossy
Stream size : 2.29 GiB (29%)
Title : Surrogates (2009)-alE13
Language : English
Default : No
Forced : No

Audio #3
ID : 6
Format : AC-3
Format/Info : Audio Coding 3
Mode extension : CM (complete main)
Format settings, Endianness : Big
Codec ID : A_AC3
Duration : 1h 28mn
Bit rate mode : Constant
Bit rate : 384 Kbps
Channel(s) : 6 channels
Channel positions : Front: L C R, Side: L R, LFE
Sampling rate : 48.0 KHz
Frame rate : 31.250 fps (1536 spf)
Compression mode : Lossy
Stream size : 243 MiB (3%)
Title : Surrogates (2009)-alE13
Language : Polish
Default : Yes
Forced : No

Text #1
ID : 4
Format : PGS
Muxing mode : zlib
Codec ID : S_HDMV/PGS
Codec ID/Info : Picture based subtitle format used on BDs/HD-DVDs
Duration : 1h 23mn
Bit rate : 8 213 bps
Count of elements : 1489
Stream size : 4.90 MiB (0%)
Title : Surrogates (2009)-alE13
Language : English
Default : No
Forced : No

Text #2
ID : 5
Format : PGS
Muxing mode : zlib
Codec ID : S_HDMV/PGS
Codec ID/Info : Picture based subtitle format used on BDs/HD-DVDs
Duration : 1h 24mn
Bit rate : 9 229 bps
Count of elements : 1744
Stream size : 5.58 MiB (0%)
Title : Surrogates (2009)-alE13
Language : English
Default : No
Forced : No

Text #3
ID : 7
Format : UTF-8
Codec ID : S_TEXT/UTF8
Codec ID/Info : UTF-8 Plain Text
Duration : 1h 23mn
Bit rate : 42 bps
Count of elements : 872
Stream size : 26.0 KiB (0%)
Title : Surrogates (2009)-alE13
Language : Polish
Default : Yes
Forced : No

Trackers

Refresh Leechers : Updated September 17, 2016

1. http://tracker.aletorrenty.pl:2710/announce

2. http://tracker.filetracker.pl:8089/announce

3. http://tracker.torrenty.org:6969/announce

4. http://tracker.ex.ua/announce

5. udp://inferno.demonoid.ooo:3392/announce

6. http://torrent.gresille.org/announce.php

7. udp://tracker.aletorrenty.pl:2710/announce

8. udp://tracker.openbittorrent.com:80/announce

9. udp://tracker.leechers-paradise.org:6969/announce

Comments

You must log in to add a comment.

Embed Code

Sharing Widget

Top Movies ( auto generated report )

FILENAME SIZE SEEDS PEERS ADDED UPD
[i] Going in Style (2017) [720p] [YTS AG] 713.31 MB 7555 4189 3 days 2 days
[i] Going in Style (2017) [1080p] [YTS AG] 1.47 GB 6548 3336 3 days 2 days
[i] The Circle (2017) [1080p] [YTS AG] 1.68 GB 4522 2933 2 days 1 day
[i] The Circle (2017) [720p] [YTS AG] 812.53 MB 4292 3059 2 days 1 day
[i] Colossal (2016) [720p] [YTS AG] 797.03 MB 2620 1311 4 days 3 days
[i] S W A T - Under Siege (2017) [720p] [YTS AG] 665.25 MB 2586 1468 3 days 2 days
[i] Colossal (2016) [1080p] [YTS AG] 1.66 GB 2497 1293 4 days 3 days
[i] Sleight (2016) [720p] [YTS AG] 658.87 MB 1861 1053 4 days 3 days
[i] S W A T - Under Siege (2017) [1080p] [YTS AG] 1.36 GB 1817 972 3 days 2 days
[i] The Girl from the Song (2017) [1080p] [YTS AG] 1.56 GB 1472 891 2 days 1 day