Bit Torrent Scene a public file sharing platform Home Categories Blog About

advertising ( remove )

Terminus 2015 720p BRRip XviD AC3-RARBG

DOWNLOAD TORRENT

Posted on March 16, 2016 in Movies » Misc , verified torrent

Size: 2.06 GB , Seeds: 0 , Peers: 0 ( Updated June 23, 2016 - Refresh )

* Download via Magnet Link * To download files you need a Bittorrent Client ,

advertising ( remove )

External Info

Trailer | Wikipedia | Other Info

Internal Files

Terminus.2015.720p.BRRip.XviD.AC3-RARBG
RARBG.COM.avi   1.14 MB
RARBG.COM.txt   34 Byte
Terminus.2015.720p.BRRip.XviD.AC3-RARBG.avi   2.06 GB
Terminus.2015.720p.BRRip.XviD.AC3-RARBG.nfo   2.98 KB

Hash Code

ca37bdb193fc8119823f3ab4003c3ad35055d1eb

Description



https://rarbg.to

Terminus.2015.720p.BRRip.XviD.AC3-RARBG



SCREENSHOT

Screens :



SCREENSHOT



SCREENSHOT



SCREENSHOT



SCREENSHOT



SCREENSHOT

Mediainfo :



Video

ID : 0

Format : MPEG-4 Visual

Format profile : [email protected]

Format settings, BVOP : No

Format settings, QPel : No

Format settings, GMC : No warppoints

Format settings, Matrix : Default (H.263)

Codec ID : XVID

Codec ID/Hint : XviD

Duration : 1h 33mn

Bit rate : 2 488 Kbps

Width : 1 280 pixels

Height : 534 pixels

Display aspect ratio : 2.40:1

Frame rate : 23.976 fps

Color space : YUV

Chroma subsampling : 4:2:0

Bit depth : 8 bits

Scan type : Progressive

Compression mode : Lossy

Bits/(Pixel*Frame) : 0.152

Stream size : 1.63 GiB (79%)

Writing library : Lavc56.60.100



Audio

ID : 1

Format : AC-3

Format/Info : Audio Coding 3

Mode extension : CM (complete main)

Format settings, Endianness : Big

Codec ID : 2000

Duration : 1h 33mn

Bit rate mode : Constant

Bit rate : 640 Kbps

Channel(s) : 6 channels

Channel positions : Front: L C R, Side: L R, LFE

Sampling rate : 48.0 KHz

Frame rate : 31.250 fps (1536 spf)

Compression mode : Lossy

Stream size : 430 MiB (20%)

Alignment : Aligned on interleaves

Interleave, duration : 42 ms (1.00 video frame)

Interleave, preload duration : 512 ms






Torrent location

https://kat.cr/terminus-2015-720p-brrip-xvid-ac3-rarbg-t12250970.html

Scrape History ( seeds + peers )

Trackers

Refresh Leechers : Updated June 23, 2016

1. udp://tracker.coppersurfer.tk:6969/announce

2. udp://tracker.openbittorrent.com:80/announce

3. udp://glotorrents.pw:6969/announce

4. udp://tracker.publicbt.com:80/announce

5. https://tracker.trackerfix.com/announce

6. udp://tracker.opentrackr.org:1337/announce

7. udp://9.rarbg.me:2710/announce

8. udp://9.rarbg.to:2710/announce

Comments

You must log in to add a comment.

Embed Code

Sharing Widget

Related torrents

FILENAME SIZE SEEDS PEERS ADDED UPD
[i]
[i]
Terminus 2015 720p BRRip x264 AAC-ETRG
Movies - Sci-fi , Quality: Audio 8/10 - Video 8/10
702.47 MB 54 1 5 months 2 months
[i] Terminus 2015 BRRip 720p x264 AAC-PRiSTiNE [P2PDL]
posted by VYTO in Movies - Sci-fi
611.68 MB 4 0 5 months 2 months
[i] Terminus (2015) 720p BRRip 850MB - MkvCage 851.3 MB 2 1 5 months 2 months

Top Movies ( auto generated report )

FILENAME SIZE SEEDS PEERS ADDED UPD
[i] Now.You.See.Me.2.2016.1080p.BluRay.x264.AC3-JYK 2.93 GB 5623 2377 2 days 2 hours
[i] Jason.Bourne.720p.HDTC.X264-NUKU
Movies - Action , Quality: Audio 8/10 - Video 8/10
2.49 GB 8305 4566 1 day 3 hours
[i] Blood.Father.2016.HDRip.XViD-ETRG 711.3 MB 7851 3968 3 days 1 day
[i] The Conjuring 2 (2016) 720p BluRay - 1.2GB - ShAaNiG 1.2 GB 7125 5490 2 days 1 day
[i] Jason Bourne (2016) 720p HDTC 850MB - MkvCage 904.3 MB 3847 1228 2 days 4 hours
[i] Blood.Father.2016.720p.WEBRip.x264.AAC-ETRG 662.3 MB 4159 2580 2 days 1 day
[i] War Dogs 2016 HD-TS x264-CPG 2.1 GB 3948 3105 2 days 1 day
[i] Our.Kind.of.Traitor.2016.HDRip.XviD.AC3-EVO 1.41 GB 4183 3294 1 day 3 hours
[i] The.Conjuring.2.2016.720p.BRRip.x264.AAC-ETRG 1004.3 MB 3885 3190 2 days 1 day
[i] The.Conjuring.2.2016.BRRip.XViD.AC3-ETRG 1.41 GB 2498 2579 2 days 1 day
advertising ( remove )