Bit Torrent Scene a public file sharing platform Home Categories About

Warning! Use a VPN When Downloading Torrents!
Your IP Address is . Location is
Avoid LAWSUITS and FINES! Hide your IP ADDRESS with a VPN!
We strongly recommend using Trust.Zone VPN to anonymize your torrenting. It's FREE!
Get VPN Now for FREE!

Terminus 2015 720p BRRip XviD AC3-RARBG

DOWNLOAD TORRENT

Posted on March 16, 2016 in Movies » Misc , verified torrent

Size: 2.06 GB , Seeds: 0 , Peers: 1 ( Updated September 1, 2016 - Refresh )

* Download via Magnet Link

Loading...

Scrape History ( seeds + peers )

Internal Files

Terminus.2015.720p.BRRip.XviD.AC3-RARBG
RARBG.COM.avi   1.14 MB
RARBG.COM.txt   34 Byte
Terminus.2015.720p.BRRip.XviD.AC3-RARBG.avi   2.06 GB
Terminus.2015.720p.BRRip.XviD.AC3-RARBG.nfo   2.98 KB

Hash Code

ca37bdb193fc8119823f3ab4003c3ad35055d1eb

Description



https://rarbg.to

Terminus.2015.720p.BRRip.XviD.AC3-RARBG



SCREENSHOT

Screens :



SCREENSHOT



SCREENSHOT



SCREENSHOT



SCREENSHOT



SCREENSHOT

Mediainfo :



Video

ID : 0

Format : MPEG-4 Visual

Format profile : [email protected]

Format settings, BVOP : No

Format settings, QPel : No

Format settings, GMC : No warppoints

Format settings, Matrix : Default (H.263)

Codec ID : XVID

Codec ID/Hint : XviD

Duration : 1h 33mn

Bit rate : 2 488 Kbps

Width : 1 280 pixels

Height : 534 pixels

Display aspect ratio : 2.40:1

Frame rate : 23.976 fps

Color space : YUV

Chroma subsampling : 4:2:0

Bit depth : 8 bits

Scan type : Progressive

Compression mode : Lossy

Bits/(Pixel*Frame) : 0.152

Stream size : 1.63 GiB (79%)

Writing library : Lavc56.60.100



Audio

ID : 1

Format : AC-3

Format/Info : Audio Coding 3

Mode extension : CM (complete main)

Format settings, Endianness : Big

Codec ID : 2000

Duration : 1h 33mn

Bit rate mode : Constant

Bit rate : 640 Kbps

Channel(s) : 6 channels

Channel positions : Front: L C R, Side: L R, LFE

Sampling rate : 48.0 KHz

Frame rate : 31.250 fps (1536 spf)

Compression mode : Lossy

Stream size : 430 MiB (20%)

Alignment : Aligned on interleaves

Interleave, duration : 42 ms (1.00 video frame)

Interleave, preload duration : 512 ms






Torrent location

http://kat.cr/terminus-2015-720p-brrip-xvid-ac3-rarbg-t12250970.html

Trackers

Refresh Leechers : Updated September 1, 2016

1. udp://tracker.coppersurfer.tk:6969/announce

2. udp://tracker.openbittorrent.com:80/announce

3. udp://glotorrents.pw:6969/announce

4. udp://tracker.publicbt.com:80/announce

5. http://tracker.trackerfix.com/announce

6. udp://tracker.opentrackr.org:1337/announce

7. udp://9.rarbg.me:2710/announce

8. udp://9.rarbg.to:2710/announce

Comments

You must log in to add a comment.

Embed Code

Sharing Widget

Related torrents

FILENAME SIZE SEEDS PEERS ADDED UPD
[i] Terminus (2015) 720p BRRip 850MB - MkvCage 851.3 MB 2 0 1 year 6 months
[i] Terminus 2015 BRRip 720p x264 AAC-PRiSTiNE [P2PDL]
posted by VYTO in Movies - Sci-fi
611.68 MB 1 0 1 year 6 days

Top Movies ( auto generated report )

FILENAME SIZE SEEDS PEERS ADDED UPD
[i] Patriots Day 2016 1080p BluRay x264 DTS-JYK 3.36 GB 3746 3901 7 hours 5 hours
[i] The.Space.Between.Us.2017.HC.HDRip.XViD.AC3-ETRG 1.4 GB 3374 3964 3 days 2 days
[i] Resident.Evil.The.Final.Chapter.2016.1080p.BluRay.x264.DTS-JYK 2.69 GB 1737 717 2 days 2 hours
[i] Breaking.Bad.The.Movie.2017.HDRip.XViD.AC3-ETRG 1.4 GB 1997 607 2 days 1 day
[i] Paterson (2016) [1080p] [YTS AG] 1.8 GB 1851 1108 3 days 2 days
[i] The Chamber (2016) [720p] [YTS AG] 663.13 MB 1408 444 5 days 6 hours
[i] Hidden.Figures.2016.720p.BRRip.x264.AAC-ETRG 949.3 MB 1676 1382 2 days 1 day
[i] The Chamber (2016) [1080p] [YTS AG] 1.37 GB 1524 927 5 days 4 days
[i] Dig.Two.Graves.2014.HDRip.XViD-ETRG 712.3 MB 1474 1090 1 day 8 hours
[i] Prevenge.2016.HDRip.XViD-ETRG 709.3 MB 1457 1137 1 day 9 hours
advertising ( remove )