Terminus 2015 BRRip 720p x264 AAC-PRiSTiNE [P2PDL]

DOWNLOAD TORRENT

Posted by VYTO •1146 on March 17, 2016 in Movies » Sci-Fi , verified torrent

Size: 611.68 MB , Seeds: 1 , Peers: 0 ( Updated March 21, 2017 - Refresh )

* Download via Magnet Link * To download files you need a Bittorrent Client ,

Scrape History ( seeds + peers )

Internal Files

Terminus.2015.BRRip.720p.x264.AAC-PRiSTiNE [P2PDL.com]
Terminus.2015.BRRip.720p.x264.AAC-PRiSTiNE.mp4   600.01 MB
Sample.mp4   11.57 MB
Terminus.2015.BRRip.720p.x264.AAC-PRiSTiNE.srt   58.17 KB
VYTO.png   39.3 KB
Terminus.2015.BRRip.720p.x264.AAC-PRiSTiNE.nfo   2.27 KB
Torrent downloaded from demonoid.pw.txt   46 Byte
Torrent downloaded from p2pdl.com.txt   33 Byte

Hash Code

e4f3bfe456c7719eadb354ac0c5429a634a04d81

Description

SCREENSHOT


Terminus.2015.BRRip.720p.x264.AAC-PRiSTiNE


Genre: Sci-Fi
IMDb: http://www.imdb.com/title/tt3399896/


Format : MPEG-4
File size : 600 MiB
Duration : 1h 33mn
Overall bit rate : 893 Kbps

Video
Format : AVC
Bit rate : 812 Kbps
Width : 1 280 pixels
Height : 528 pixels
Display aspect ratio : 2.40:1
Frame rate mode : Constant
Frame rate : 23.976 fps
Bit depth : 8 bits
Stream size : 544 MiB (91%)
Writing library : x264

Audio
Format : AAC
Bit rate mode : Variable
Bit rate : 79.8 Kbps
Channel(s) : 2 channels
Channel positions : Front: L R
Sampling rate : 48.0 KHz
Stream size : 53.6 MiB (9%)
Language : English

Subtitle : Yes (English)


Screen Shots: (click to see image in full size)

SCREENSHOT SCREENSHOT SCREENSHOT

SCREENSHOT SCREENSHOT SCREENSHOT

SCREENSHOT SCREENSHOT SCREENSHOT

-------------------------------------------------------------------------------------


Encoder Notes: Looking For Early Access To Anything You Can Provide WEBDL, DVDScr, DVDR, BluRay, Direct
Audio, Music Releases and Seedboxes.



SCREENSHOT

SCREENSHOT

Trackers

Refresh Leechers : Updated March 21, 2017

1. udp://tracker.coppersurfer.tk:6969/announce

2. udp://tracker.blackunicorn.xyz:6969/announce

3. udp://tracker.openbittorrent.com:80/announce

4. udp://tracker.opentrackr.org:1337/announce

5. udp://9.rarbg.to:2710/announce

6. udp://9.rarbg.me:2710/announce

7. udp://tracker.sktorrent.net:6969/announce

8. udp://tracker.glotorrents.com:6969/announce

9. udp://p4p.arenabg.com:1337/announce

10. http://ipv4.tracker.harry.lu:80/announce

11. http://tracker.ex.ua/announce

12. udp://torrent.gresille.org:80/announce

13. http://tracker.aletorrenty.pl:2710/announce

14. udp://tracker.leechers-paradise.org:6969/announce

15. udp://tracker.istole.it:80/announce

Comments

You must log in to add a comment.

Embed Code

Sharing Widget

Related torrents

FILENAME SIZE SEEDS PEERS ADDED UPD
[i] Terminus (2015) 720p BRRip 850MB - MkvCage 851.3 MB 2 0 1 year 7 months
[i] Terminus 2015 720p BRRip XviD AC3-RARBG 2.06 GB 0 1 1 year 7 months

Top Movies ( auto generated report )

FILENAME SIZE SEEDS PEERS ADDED UPD
[i] Rings.2017.BRRip.XViD-ETRG 712.3 MB 3337 1068 4 days 23 hours
[i] Get.Out.2017.720p.HC.HDRip.XviD.AC3-EVO[EtHD] 2.5 GB 4283 1659 3 days 1 day
[i] A Dog's Purpose (2017) [720p] [YTS AG] 734.31 MB 4012 2214 4 days 1 day
[i] Gold (2016) [720p] [YTS AG] 881.47 MB 3451 1636 4 days 1 day
[i] Rings (2017) [720p] [YTS AG] 758.1 MB 2972 1380 4 days 23 hours
[i] Gold (2016) [1080p] [YTS AG] 1.83 GB 3342 1727 4 days 3 days
[i] A Dog's Purpose (2017) [1080p] [YTS AG] 1.52 GB 2887 1464 4 days 13 hours
[i] Rings (2017) [1080p] [YTS AG] 1.56 GB 3072 1881 4 days 3 days
[i] Get.Out.2017.1080p.HC.WEBRip.x264.AAC2.0-STUTTERSHIT 3.4 GB 2014 855 3 days 21 hours
[i] Las inocentes (HDRip) 1.92 GB 1775 384 3 days 1 day