Bit Torrent Scene a public file sharing platform Home Categories Blog About

advertising ( remove )

Terminus 2015 BRRip 720p x264 AAC-PRiSTiNE [P2PDL]

DOWNLOAD TORRENT

Posted by VYTO •906 on March 17, 2016 in Movies » Sci-Fi , verified torrent

Size: 611.68 MB , Seeds: 4 , Peers: 0 ( Updated June 24, 2016 - Refresh )

* Download via Magnet Link * To download files you need a Bittorrent Client ,

advertising ( remove )

External Info

Trailer | Wikipedia | Other Info

Internal Files

Terminus.2015.BRRip.720p.x264.AAC-PRiSTiNE [P2PDL.com]
Terminus.2015.BRRip.720p.x264.AAC-PRiSTiNE.mp4   600.01 MB
Sample.mp4   11.57 MB
Terminus.2015.BRRip.720p.x264.AAC-PRiSTiNE.srt   58.17 KB
VYTO.png   39.3 KB
Terminus.2015.BRRip.720p.x264.AAC-PRiSTiNE.nfo   2.27 KB
Torrent downloaded from demonoid.pw.txt   46 Byte
Torrent downloaded from p2pdl.com.txt   33 Byte

Hash Code

e4f3bfe456c7719eadb354ac0c5429a634a04d81

Description

SCREENSHOT


Terminus.2015.BRRip.720p.x264.AAC-PRiSTiNE


Genre: Sci-Fi
IMDb: https://www.imdb.com/title/tt3399896/


Format : MPEG-4
File size : 600 MiB
Duration : 1h 33mn
Overall bit rate : 893 Kbps

Video
Format : AVC
Bit rate : 812 Kbps
Width : 1 280 pixels
Height : 528 pixels
Display aspect ratio : 2.40:1
Frame rate mode : Constant
Frame rate : 23.976 fps
Bit depth : 8 bits
Stream size : 544 MiB (91%)
Writing library : x264

Audio
Format : AAC
Bit rate mode : Variable
Bit rate : 79.8 Kbps
Channel(s) : 2 channels
Channel positions : Front: L R
Sampling rate : 48.0 KHz
Stream size : 53.6 MiB (9%)
Language : English

Subtitle : Yes (English)


Screen Shots: (click to see image in full size)

SCREENSHOT SCREENSHOT SCREENSHOT

SCREENSHOT SCREENSHOT SCREENSHOT

SCREENSHOT SCREENSHOT SCREENSHOT

-------------------------------------------------------------------------------------


Encoder Notes: Looking For Early Access To Anything You Can Provide WEBDL, DVDScr, DVDR, BluRay, Direct
Audio, Music Releases and Seedboxes.



SCREENSHOT

SCREENSHOT

Scrape History ( seeds + peers )

Trackers

Refresh Leechers : Updated June 24, 2016

1. udp://tracker.coppersurfer.tk:6969/announce

2. udp://tracker.blackunicorn.xyz:6969/announce

3. udp://tracker.openbittorrent.com:80/announce

4. udp://tracker.opentrackr.org:1337/announce

5. udp://9.rarbg.to:2710/announce

6. udp://9.rarbg.me:2710/announce

7. udp://tracker.sktorrent.net:6969/announce

8. udp://tracker.glotorrents.com:6969/announce

9. udp://p4p.arenabg.com:1337/announce

10. https://ipv4.tracker.harry.lu:80/announce

11. https://tracker.ex.ua/announce

12. udp://torrent.gresille.org:80/announce

13. https://tracker.aletorrenty.pl:2710/announce

14. udp://tracker.leechers-paradise.org:6969/announce

15. udp://tracker.istole.it:80/announce

Comments

You must log in to add a comment.

Embed Code

Sharing Widget

Related torrents

FILENAME SIZE SEEDS PEERS ADDED UPD
[i]
[i]
Terminus 2015 720p BRRip x264 AAC-ETRG
Movies - Sci-fi , Quality: Audio 8/10 - Video 8/10
702.47 MB 54 1 5 months 2 months
[i] Terminus (2015) 720p BRRip 850MB - MkvCage 851.3 MB 2 1 5 months 2 months
[i] Terminus 2015 720p BRRip XviD AC3-RARBG 2.06 GB 0 0 5 months 2 months

Top Movies ( auto generated report )

FILENAME SIZE SEEDS PEERS ADDED UPD
[i] Now.You.See.Me.2.2016.1080p.BluRay.x264.AC3-JYK 2.93 GB 8132 5852 2 days 1 day
[i] Blood.Father.2016.HDRip.XViD-ETRG 711.3 MB 7851 3968 2 days 16 hours
[i] The Conjuring 2 (2016) 720p BluRay - 1.2GB - ShAaNiG 1.2 GB 7125 5490 1 day 17 hours
[i] Jason.Bourne.720p.HDTC.X264-NUKU
Movies - Action , Quality: Audio 8/10 - Video 8/10
2.49 GB 8020 6984 6 hours 4 hours
[i] Jason Bourne (2016) 720p HDTC 850MB - MkvCage 904.3 MB 4312 2138 1 day 13 hours
[i] Blood.Father.2016.720p.WEBRip.x264.AAC-ETRG 662.3 MB 4159 2580 1 day 7 hours
[i] War Dogs 2016 HD-TS x264-CPG 2.1 GB 3948 3105 1 day 6 hours
[i] The.Conjuring.2.2016.720p.BRRip.x264.AAC-ETRG 1004.3 MB 3885 3190 1 day 7 hours
[i] Our.Kind.of.Traitor.2016.HDRip.XviD.AC3-EVO 1.41 GB 3922 4367 6 hours 4 hours
[i] Genius.2016.HDRip.XviD.AC3-EVO 1.39 GB 2250 1125 4 days 3 days
advertising ( remove )