Bit Torrent Scene a public file sharing platform Home Categories About

Warning! Use a VPN When Downloading Torrents!
Your IP Address is . Location is
Avoid LAWSUITS and FINES! Hide your IP ADDRESS with a VPN!
We strongly recommend using Trust.Zone VPN to anonymize your torrenting. It's FREE!
Get VPN Now for FREE!

The Angry Birds Movie 2016 HDTC 720p x264 English AC3 2.0...Hon3y

DOWNLOAD TORRENT

Posted on May 27, 2016 in Movies » Animation , verified torrent

Size: 1.08 GB , Seeds: 307 , Peers: 89 ( Updated November 12, 2016 - Refresh )

* Download via Magnet Link

Loading...

Scrape History ( seeds + peers )

Internal Files

The Angry Birds Movie 2016 HDTC 720p x264 English AC3 2.0...Hon3y
The Angry Birds Movie 2016 HDTC 720p x264 English AC3 2.0...Hon3y.mkv   1.07 GB
The Angry Birds---Sample.mkv   13.05 MB
Hon3yHD.com.txt   39 Byte
Torrent Seed By www.hostdzire.com.txt   33 Byte

Hash Code

ecf283f6d7b7280a097c9990e32c7d2840cd7930

Description

SCREENSHOT





The Angry Birds Movie 2016 HDTC 720p x264 English AAC 2.0...Hon3y







General

Format : Matroska

Format version : Version 4 / Version 2

File size : 1.07 GiB

Duration : 1h 36mn

Overall bit rate : 1 577 Kbps



Video

Format : AVC

Format/Info : Advanced Video Codec

Format profile : [email protected]/* */

Format settings, CABAC : Yes

Format settings, ReFrames : 9 frames

Codec ID : V_MPEG4/ISO/AVC

Duration : 1h 36mn

Bit rate : 1 380 Kbps

Width : 1 280 pixels

Height : 720 pixels

Display aspect ratio : 16:9

Frame rate mode : Constant

Frame rate : 24.000 fps

Color space : YUV

Chroma subsampling : 4:2:0

Bit depth : 8 bits

Scan type : Progressive

Bits/(Pixel*Frame) : 0.062

Stream size : 954 MiB (87%)





Audio

Format : AAC

Format/Info : Advanced Audio Codec

Format profile : LC

Codec ID : A_AAC

Duration : 1h 36mn

Bit rate : 192 Kbps

Channel(s) : 2 channels

Channel positions : Front: L R

Sampling rate : 44.1 KHz

Frame rate : 43.066 fps (1024 spf)

Compression mode : Lossy

Stream size : 135 MiB (12%)

Default : Yes



SCREENSHOT SCREENSHOT SCREENSHOT SCREENSHOT SCREENSHOT SCREENSHOT SCREENSHOT SCREENSHOT SCREENSHOT SCREENSHOT

Torrent location

http://peertorrent.com/torrent/4935875/The+Angry+Birds+Movie+2016+HDTC+720p+x264+English+AC3+2.0...Hon3y.html

Trackers

Refresh Leechers : Updated November 12, 2016

1. udp://tracker.coppersurfer.tk:6969/announce

2. udp://tracker.coppersurfer.tk:6969

3. udp://tracker.opentrackr.org:1337/announce

4. udp://tracker.aletorrenty.pl:2710/announce

5. udp://p4p.arenabg.ch:1337/announce

6. udp://thetracker.org:80/announce

7. udp://tracker.sktorrent.net:6969/announce

8. udp://9.rarbg.me:2710/announce

9. udp://9.rarbg.to:2710/announce

10. udp://zer0day.ch:1337/announce

11. udp://tracker.leechers-paradise.org:6969/announce

12. udp://explodie.org:6969/announce

13. udp://p4p.arenabg.com:1337

14. udp://torrent.gresille.org:80/announce

Comments

You must log in to add a comment.

Embed Code

Sharing Widget

Related torrents

FILENAME SIZE SEEDS PEERS ADDED UPD
[i]
[i]
The Angry Birds Movie (2016) CAMRip | RUSSAIN | EMMA
Movies - Animation , Quality: Audio 4/10 - Video 5/10
1.37 GB 813 9 10 months 4 months
[i]
[i]
The.Angry.Birds.Movie.2016.Read.The.Nfo.HDRip.AC3.XviD-NUKU
Movies - Animation , Quality: Audio 8/10 - Video 8/10
1.57 GB 766 29 8 months 6 months
[i]
[i]
The Angry Birds Movie 2016 720p HD-TC x264 AC3-CPG mkv
Movies - Animation , Quality: Audio 7/10 - Video 7/10
1.46 GB 233 2 10 months 4 months
[i]
[i]
The Angry Birds Movie 2016 720p x264 WebRip AC3-4FuN[EtHD]
Movies - Animation , Quality: Audio 7/10 - Video 6/10
3.05 GB 185 11 8 months 4 months
[i] The Angry Birds Movie (2016) 720p BluRay - 850MB - ShAaNiG 851.3 MB 110 14 7 months 4 months
[i] The Angry Birds Movie - Angry Birds (2016).H264.Italian.English.Ac3.5.1.sub.ita.eng.iCV-MIRCrew
posted by robbyrs in Movies - Animation
1.46 GB 108 103 6 months 6 months
[i] The.Angry.Birds.Movie.2016.TC.Unmarked.XVID.AC3.HQ.Hive-CM8 1.54 GB 91 21 9 months 4 months
[i]
[i]
Angry Birds Movie 2016 HD-TC x264 AC3-CPG
Movies - Animation , Quality: Audio 7/10 - Video 7/10
1.35 GB 82 19 10 months 4 months
[i] The Angry Birds Movie 2016 - HDRip - 575MB - GoenWae 559.3 MB 66 4 8 months 6 months
[i] The Angry Birds Movie (2016) 720p BluRay Hindi DD 5.1Ch - Eng DD 5.1Ch ~ PyZ 2.19 GB 61 38 6 months 6 months

Top Movies ( auto generated report )

FILENAME SIZE SEEDS PEERS ADDED UPD
[i] Rogue.One.2016.BRRip.XViD.AC3-ETRG 1.4 GB 7079 2375 5 days 15 hours
[i] Why Him- (2016) [720p] [YTS AG] 805.91 MB 4285 1556 6 days 13 hours
[i] Vengeance.2017.HDRip.XViD-ETRG 705.3 MB 2431 1138 2 days 9 hours
[i] Beauty.and.the.Beast.2017.HDCAM.700MB.x264-DiRG.torrent 711.07 MB 3523 2833 2 days 1 day
[i] Machine 2017 Hindi Pre-DvDRip x264 AAC - Hon3yHD [Excluisve].torrent 705 MB 292 159 4 days 11 hours
[i] Lady Bloodfight 2016 1080p BluRay x264 DTS-JYK 2.43 GB 441 134 1 week 11 hours
[i] Logan.2017.720p.SUPER-HDTS.x264-DiRG.torrent 1.82 GB 2821 9886 1 week 1 week
[i] Silence.2016.1080p.WEB-DL.DD5.1.H264-FGT 5.58 GB 2682 4925 1 week 1 week
[i] The Plague (2006) 720p HDRip x264 Eng Subs [Dual Audio] [Hindi 2.0 - English 5.1] -=!Dr.STAR!=- 982.3 MB 101 127 4 days 11 hours
[i] Suicide Squad (2016) [720p] [YTS AG] 999.95 MB 1933 470 4 days 8 hours
advertising ( remove )