Bit Torrent Scene a public file sharing platform Home Categories Blog About

advertising ( remove )

The Angry Birds Movie 2016 HDTC 720p x264 English AC3 2.0...Hon3y

DOWNLOAD TORRENT

Posted on May 27, 2016 in Movies » Animation , verified torrent

Size: 1.08 GB , Seeds: 1035 , Peers: 381 ( Updated July 30, 2016 - Refresh )

* Download via Magnet Link * To download files you need a Bittorrent Client ,

advertising ( remove )

External Info

Trailer | Wikipedia | Other Info

Internal Files

The Angry Birds Movie 2016 HDTC 720p x264 English AC3 2.0...Hon3y
The Angry Birds Movie 2016 HDTC 720p x264 English AC3 2.0...Hon3y.mkv   1.07 GB
The Angry Birds---Sample.mkv   13.05 MB
Hon3yHD.com.txt   39 Byte
Torrent Seed By www.hostdzire.com.txt   33 Byte

Hash Code

ecf283f6d7b7280a097c9990e32c7d2840cd7930

Description

SCREENSHOT





The Angry Birds Movie 2016 HDTC 720p x264 English AAC 2.0...Hon3y







General

Format : Matroska

Format version : Version 4 / Version 2

File size : 1.07 GiB

Duration : 1h 36mn

Overall bit rate : 1 577 Kbps



Video

Format : AVC

Format/Info : Advanced Video Codec

Format profile : [email protected]/* */

Format settings, CABAC : Yes

Format settings, ReFrames : 9 frames

Codec ID : V_MPEG4/ISO/AVC

Duration : 1h 36mn

Bit rate : 1 380 Kbps

Width : 1 280 pixels

Height : 720 pixels

Display aspect ratio : 16:9

Frame rate mode : Constant

Frame rate : 24.000 fps

Color space : YUV

Chroma subsampling : 4:2:0

Bit depth : 8 bits

Scan type : Progressive

Bits/(Pixel*Frame) : 0.062

Stream size : 954 MiB (87%)





Audio

Format : AAC

Format/Info : Advanced Audio Codec

Format profile : LC

Codec ID : A_AAC

Duration : 1h 36mn

Bit rate : 192 Kbps

Channel(s) : 2 channels

Channel positions : Front: L R

Sampling rate : 44.1 KHz

Frame rate : 43.066 fps (1024 spf)

Compression mode : Lossy

Stream size : 135 MiB (12%)

Default : Yes



SCREENSHOT SCREENSHOT SCREENSHOT SCREENSHOT SCREENSHOT SCREENSHOT SCREENSHOT SCREENSHOT SCREENSHOT SCREENSHOT

Torrent location

https://peertorrent.com/torrent/4935875/The+Angry+Birds+Movie+2016+HDTC+720p+x264+English+AC3+2.0...Hon3y.html

Scrape History ( seeds + peers )

Trackers

Refresh Leechers : Updated July 30, 2016

1. udp://tracker.coppersurfer.tk:6969/announce

2. udp://tracker.coppersurfer.tk:6969

3. udp://tracker.opentrackr.org:1337/announce

4. udp://tracker.aletorrenty.pl:2710/announce

5. udp://p4p.arenabg.ch:1337/announce

6. udp://thetracker.org:80/announce

7. udp://tracker.sktorrent.net:6969/announce

8. udp://9.rarbg.me:2710/announce

9. udp://9.rarbg.to:2710/announce

10. udp://zer0day.ch:1337/announce

11. udp://tracker.leechers-paradise.org:6969/announce

12. udp://explodie.org:6969/announce

13. udp://p4p.arenabg.com:1337

14. udp://torrent.gresille.org:80/announce

Comments

You must log in to add a comment.

Embed Code

Sharing Widget

Related torrents

FILENAME SIZE SEEDS PEERS ADDED UPD
[i]
[i]
The Angry Birds Movie 2016 720p x264 WebRip AC3-4FuN[EtHD]
Movies - Animation , Quality: Audio 7/10 - Video 6/10
3.05 GB 3939 1998 1 month 1 month
[i]
[i]
The.Angry.Birds.Movie.2016.Read.The.Nfo.HDRip.AC3.XviD-NUKU
Movies - Animation , Quality: Audio 8/10 - Video 8/10
1.57 GB 3155 810 2 months 1 month
[i]
[i]
The Angry Birds Movie (2016) CAMRip | RUSSAIN | EMMA
Movies - Animation , Quality: Audio 4/10 - Video 5/10
1.37 GB 1331 14 3 months 6 days
[i]
[i]
The Angry Birds Movie 2016 720p HD-TC x264 AC3-CPG mkv
Movies - Animation , Quality: Audio 7/10 - Video 7/10
1.46 GB 1152 117 3 months 1 month
[i] The.Angry.Birds.Movie.2016.TC.Unmarked.XVID.AC3.HQ.Hive-CM8 1.54 GB 265 59 3 months 4 weeks
[i]
[i]
Angry Birds Movie 2016 HD-TC x264 AC3-CPG
Movies - Animation , Quality: Audio 7/10 - Video 7/10
1.35 GB 261 55 3 months 1 month
[i] The Angry Birds Movie (2016) 720p BluRay - 850MB - ShAaNiG 851.3 MB 218 58 1 month 2 weeks
[i] The.Angry.Birds.Movie.2016.1080p.BluRay.AC3.X264-ETRG 2.86 GB 178 92 3 weeks 1 week
[i] The Angry Birds Movie 2016 - HDRip - 575MB - GoenWae 559.3 MB 166 7 1 month 3 weeks
[i] The Angry Birds Movie 2016 720p HD-TC x264 AC3-Garmin 1.85 GB 102 21 3 months 3 weeks

Top Movies ( auto generated report )

FILENAME SIZE SEEDS PEERS ADDED UPD
[i] Now.You.See.Me.2.2016.1080p.BluRay.x264.AC3-JYK 2.93 GB 8132 5852 1 day 19 hours
[i] Blood.Father.2016.HDRip.XViD-ETRG 711.3 MB 7851 3968 2 days 11 hours
[i] The Conjuring 2 (2016) 720p BluRay - 1.2GB - ShAaNiG 1.2 GB 7125 5490 1 day 11 hours
[i] Jason.Bourne.720p.HDTC.X264-NUKU 2.49 GB 6720 6287 52 min 52 min
[i] Jason Bourne (2016) 720p HDTC 850MB - MkvCage 904.3 MB 4312 2138 1 day 7 hours
[i] Blood.Father.2016.720p.WEBRip.x264.AAC-ETRG 662.3 MB 4159 2580 1 day 1 hour
[i] War Dogs 2016 HD-TS x264-CPG 2.1 GB 3948 3105 1 day 56 min
[i] The.Conjuring.2.2016.720p.BRRip.x264.AAC-ETRG 1004.3 MB 3885 3190 1 day 1 hour
[i] Our.Kind.of.Traitor.2016.HDRip.XviD.AC3-EVO 1.41 GB 3495 4461 51 min 51 min
[i] Genius.2016.HDRip.XviD.AC3-EVO 1.39 GB 2250 1125 4 days 3 days
advertising ( remove )