Bit Torrent Scene a public file sharing platform Home Categories Blog About

advertising ( remove )

The.Angry.Birds.Movie.2016.TC.Unmarked.XVID.AC3.HQ.Hive-CM8

DOWNLOAD TORRENT

Posted on May 27, 2016 in Movies » Animation , verified torrent

Size: 1.54 GB , Seeds: 265 , Peers: 59 ( Updated July 30, 2016 - Refresh )

* Download via Magnet Link * To download files you need a Bittorrent Client ,

advertising ( remove )

External Info

Trailer | Wikipedia | Other Info

Internal Files

The.Angry.Birds.Movie.2016.TC.Unmarked.XVID.AC3.HQ.Hive-CM8
The.Angry.Birds.Movie.2016.TC.Unmarked.XVID.AC3.HQ.Hive-CM8.avi   1.52 GB
The.Angry.Birds.Movie.2016.TC.Unmarked.XVID.AC3.HQ.Hive-CM8.nfo   4.83 KB
Torrent Downloaded From peertorrent.com.txt   338 Byte
sample.avi   15.74 MB

Hash Code

03fadbe2298aa4105e534f5ae215dcf4a465fc96

Description

SCREENSHOT





https://www.imdb.com/title/tt1985949/





Find out why the birds are so angry. When an island populated by happy, flightless birds is visited by mysterious green piggies, it's up to three unlikely outcasts - Red, Chuck and Bomb - to figure out what the pigs are up to.



Directors: Clay Kaytis, Fergal Reilly

Writers: John Cohen (story by), Mikael Hed (story by)

Stars: Jason Sudeikis, Josh Gad, Danny McBride

Genres: Animation | Action | Comedy | Family

Country: USA | Finland

Language: English





The.Angry.Birds.Movie.2016.TC.Unmarked.Masteredition.XVID.AC3.HQ.Hive-CM8



Thx Hive



CM8 Doing It Right The First Time



Sources:



Video: Unmarked 720p Chinese Telecine

Audio: Direct Line (CPG/Exclusive)

thx





Notes:

Another special Encode and first on the net completely unmarked,

tried to get a source file that doesnt have watermarkings, took me a day longer to get, but the result is excellent,

its a masterpiece from this source. Have done 720p and avi for this,looks and sounds perfect a real cinemafeeling.

Quality is tested and optimized to look perfect on a 85" 4K TV.





Encode:

The Chinese telecine needed some work,added brightness,contrast,and fixed colours.

Nothing is cut from the movie



Line Audio as usually from cpg, was great, fixed Monosourround to stereo,added some depth and bass, sounds very nice now

lipsynced to my video



got very nice and will do me till retail

enjoy



PS: waiting for better vid for xmen,portuguese is bad,russian is good but too dark, both incomplete too,not sure yet

perhaps the chinese come through, lets wait and see



Video: 720x400 @bitrate 2000 2pass

Audio: Line AC3 2.0 Stereo

Sample: yes included





https://www.imdb.com/title/tt1985949/





General

Complete name : The.Angry.Birds.Movie.2016.TC.Unmarked.Masteredition.XVID.AC3.HQ.Hive-CM8.avi

Format : AVI

Format/Info : Audio Video Interleave

File size : 1.52 GiB

Duration : 1h 36mn

Overall bit rate : 2 261 Kbps

Writing application : Nandub v1.0rc2

Writing library : Nandub build 1853/release



Video

ID : 0

Format : MPEG-4 Visual

Format profile : Advanced [email protected]/* */

Format settings, BVOP : 2

Format settings, QPel : Yes

Format settings, GMC : No warppoints

Format settings, Matrix : Default (H.263)

Muxing mode : Packed bitstream

Codec ID : XVID

Codec ID/Hint : XviD

Duration : 1h 36mn

Bit rate : 1 993 Kbps

Width : 720 pixels

Height : 400 pixels

Display aspect ratio : 16:9

Frame rate : 29.970 fps

Color space : YUV

Chroma subsampling : 4:2:0

Bit depth : 8 bits

Scan type : Progressive

Compression mode : Lossy

Bits/(Pixel*Frame) : 0.231

Stream size : 1.34 GiB (88%)

Writing library : XviD 1.2.1 (UTC 2008-12-04)



Audio

ID : 1

Format : AC-3

Format/Info : Audio Coding 3

Mode extension : CM (complete main)

Format settings, Endianness : Big

Codec ID : 2000

Duration : 1h 36mn

Bit rate mode : Constant

Bit rate : 256 Kbps

Channel(s) : 2 channels

Channel positions : Front: L R

Sampling rate : 48.0 KHz

Bit depth : 16 bits

Compression mode : Lossy

Stream size : 177 MiB (11%)

Alignment : Split accross interleaves

Interleave, duration : 33 ms (1.00 video frame)

Interleave, preload duration : 500 ms





SCREENSHOT SCREENSHOT SCREENSHOT SCREENSHOT SCREENSHOT SCREENSHOT

Torrent location

https://peertorrent.com/torrent/4934585/The.Angry.Birds.Movie.2016.TC.Unmarked.XVID.AC3.HQ.Hive-CM8.html

Scrape History ( seeds + peers )

Trackers

Refresh Leechers : Updated July 30, 2016

1. udp://tracker.coppersurfer.tk:6969/announce

2. udp://thetracker.org:80/announce

3. udp://tracker.coppersurfer.tk:6969

4. udp://tracker.leechers-paradise.org:6969/announce

5. udp://eddie4.nl:6969/announce

6. udp://zer0day.ch:1337/announce

7. udp://tracker.sktorrent.net:6969/announce

8. udp://9.rarbg.me:2710/announce

9. udp://9.rarbg.to:2710/announce

10. udp://torrent.gresille.org:80/announce

11. udp://tracker.aletorrenty.pl:2710/announce

12. udp://tracker.piratepublic.com:1337/announce

13. udp://tracker.opentrackr.org:1337/announce

14. udp://explodie.org:6969/announce

15. udp://p4p.arenabg.ch:1337/announce

Comments

You must log in to add a comment.

Embed Code

Sharing Widget

Related torrents

FILENAME SIZE SEEDS PEERS ADDED UPD
[i]
[i]
The Angry Birds Movie 2016 720p x264 WebRip AC3-4FuN[EtHD]
Movies - Animation , Quality: Audio 7/10 - Video 6/10
3.05 GB 3939 1998 1 month 1 month
[i]
[i]
The.Angry.Birds.Movie.2016.Read.The.Nfo.HDRip.AC3.XviD-NUKU
Movies - Animation , Quality: Audio 8/10 - Video 8/10
1.57 GB 3155 810 2 months 1 month
[i]
[i]
The Angry Birds Movie (2016) CAMRip | RUSSAIN | EMMA
Movies - Animation , Quality: Audio 4/10 - Video 5/10
1.37 GB 1331 14 3 months 1 week
[i]
[i]
The Angry Birds Movie 2016 720p HD-TC x264 AC3-CPG mkv
Movies - Animation , Quality: Audio 7/10 - Video 7/10
1.46 GB 1152 117 3 months 1 month
[i] The Angry Birds Movie 2016 HDTC 720p x264 English AC3 2.0...Hon3y 1.08 GB 1035 381 3 months 1 month
[i]
[i]
Angry Birds Movie 2016 HD-TC x264 AC3-CPG
Movies - Animation , Quality: Audio 7/10 - Video 7/10
1.35 GB 261 55 3 months 1 month
[i] The Angry Birds Movie (2016) 720p BluRay - 850MB - ShAaNiG 851.3 MB 218 58 1 month 2 weeks
[i] The.Angry.Birds.Movie.2016.1080p.BluRay.AC3.X264-ETRG 2.86 GB 178 92 4 weeks 2 weeks
[i] The Angry Birds Movie 2016 - HDRip - 575MB - GoenWae 559.3 MB 166 7 2 months 4 weeks
[i] The Angry Birds Movie 2016 720p HD-TC x264 AC3-Garmin 1.85 GB 102 21 3 months 4 weeks

Top Movies ( auto generated report )

FILENAME SIZE SEEDS PEERS ADDED UPD
[i] Jason.Bourne.720p.HDTC.X264-NUKU
Movies - Action , Quality: Audio 8/10 - Video 8/10
2.49 GB 8305 4566 2 days 1 day
[i] The Conjuring 2 (2016) 720p BluRay - 1.2GB - ShAaNiG 1.2 GB 7125 5490 3 days 2 days
[i] Blood.Father.2016.720p.WEBRip.x264.AAC-ETRG 662.3 MB 4159 2580 3 days 2 days
[i] War Dogs 2016 HD-TS x264-CPG 2.1 GB 3948 3105 3 days 2 days
[i] The.Conjuring.2.2016.720p.BRRip.x264.AAC-ETRG 1004.3 MB 3885 3190 3 days 2 days
[i] Jason Bourne (2016) 720p HDTC 850MB - MkvCage 904.3 MB 3847 1228 3 days 1 day
[i] The.Conjuring.2.2016.BRRip.XViD.AC3-ETRG 1.41 GB 2498 2579 3 days 2 days
[i] Jason Bourne (2016) 720p HDTS - 1GB - ShAaNiG 1.04 GB 1901 860 3 days 2 days
[i] The.Ones.Below.2016.BRRip.XviD.AC3-EVO 1.4 GB 1719 1450 2 days 1 day
[i] The.Conjuring.2.2016.720p.BluRay.x264-SPARKS[EtHD] 5.55 GB 1596 3176 3 days 2 days
advertising ( remove )