The.Contractor.2007.720p.BluRay.x264-x0r[PRiME]

DOWNLOAD TORRENT

Posted on May 19, 2017 in Movies » Misc , verified torrent

Size: 2.07 GB , Seeds: 3 , Peers: 0 ( Updated June 22, 2017 - Refresh )

* Download via Magnet Link * To download files you need a Bittorrent Client ,

Scrape History ( seeds + peers )

Internal Files

The.Contractor.2007.720p.BluRay.x264-x0r[PRiME]
Please Support!! Read More!!!.txt   334 Byte
The.Contractor.2007.720p.BluRay.x264-x0r.fanart.jpg   247.99 KB
The.Contractor.2007.720p.BluRay.x264-x0r.jpg   247.82 KB
The.Contractor.2007.720p.BluRay.x264-x0r[PRiME].mkv   2.07 GB
The.Contractor.2007.720p.BluRay.x264-x0r[TRAILER-Theatrical Trailer][PRiME].mp4   2.54 MB

Hash Code

6a886119baa221476d3f2b34cfe0e71be3f308b0

Description


The.Contractor.2007.720p.BluRay.x264-x0r[PRiME]

ImDb: http://www.imdb.com/title/tt0770806

SCREENSHOT

Complete name : The.Contractor.2007.720p.BluRay.x264-x0r[TRAILER-Theatrical Trailer][PRiME].mp4
Format : MPEG-4
Format profile : Base Media / Version 2
Codec ID : mp42 (isom/mp42)
File size : 2.54 MiB
Duration : 1 min 0 s
Overall bit rate mode : Variable
Overall bit rate : 354 kb/s
Encoded date : UTC 2014-10-04 06:30:24
Tagged date : UTC 2014-10-04 06:30:24

Video
ID : 1
Format : AVC
Format/Info : Advanced Video Codec
Format profile : [email protected]/* */
Format settings, CABAC : No
Format settings, ReFrames : 1 frame
Codec ID : avc1
Codec ID/Info : Advanced Video Coding
Duration : 59 s 977 ms
Bit rate : 256 kb/s
Maximum bit rate : 507 kb/s
Width : 384 pixels
Height : 216 pixels
Display aspect ratio : 16:9
Frame rate mode : Constant
Frame rate : 23.976 (24000/1001) FPS
Color space : YUV
Chroma subsampling : 4:2:0
Bit depth : 8 bits
Scan type : Progressive
Bits/(Pixel*Frame) : 0.129
Stream size : 1.83 MiB (72%)
Encoded date : UTC 1904-01-01 00:00:00
Tagged date : UTC 2014-10-04 06:30:25

Audio
ID : 2
Format : AAC
Format/Info : Advanced Audio Codec
Format profile : LC
Codec ID : 40
Duration : 1 min 0 s
Bit rate mode : Variable
Bit rate : 96.0 kb/s
Maximum bit rate : 103 kb/s
Channel(s) : 2 channels
Channel positions : Front: L R
Sampling rate : 44.1 kHz
Frame rate : 43.066 FPS (1024 spf)
Compression mode : Lossy
Stream size : 706 KiB (27%)
Title : IsoMedia File Produced by Google, 5-11-2011
Encoded date : UTC 2014-10-04 06:30:24
Tagged date : UTC 2014-10-04 06:30:25

SCREENSHOT

Click Image To View Full Size

SCREENSHOT
Click To View Screenshot
Click To View Screenshot
Click To View Screenshot

Torrent location

https://www.1337x.to/torrent/2219160/The-Contractor-2007-720p-BluRay-x264-x0r-PRiME/

Trackers

Refresh Leechers : Updated June 22, 2017

1. http://explodie.org:6969/announce

2. http://tracker.tfile.me/announce

3. http://bigfoot1942.sektori.org:6969/announce

4. http://tracker2.wasabii.com.tw:6969/announce

5. http://tracker.mg64.net:6881/announce

6. http://bt.artvid.ru:6969/announce

7. http://tracker1.wasabii.com.tw:6969/announce

8. http://open.acgtracker.com:1096/announce

9. http://tracker.opentrackr.org/announce

10. http://mvgroup.org:2710/announce

11. udp://mgtracker.org:6969/announce

12. udp://asnet.pw:2710/announce

13. udp://tracker.mgtracker.org:2710/announce

14. udp://tracker4.piratux.com:6969/announce

15. udp://tracker.trackerfix.com:80/announce

16. udp://tracker.pomf.se:80/announce

17. udp://torrent.gresille.org:80/announce

18. udp://p4p.arenabg.com:1337

19. udp://ipv4.tracker.harry.lu:80/announce

20. udp://inferno.demonoid.ooo:3389/announce

21. udp://tracker.blackunicorn.xyz:6969/announce

22. udp://tracker.internetwarriors.net:1337/announce

23. udp://tracker.openbittorrent.com:80/announce

24. udp://eddie4.nl:6969/announce

25. udp://tracker.leechers-paradise.org:6969/announce

26. udp://tracker.opentrackr.org:1337/announce

27. udp://tracker.zer0day.to:1337/announce

28. udp://p4p.arenabg.ch:1337/announce

29. udp://tracker.coppersurfer.tk:6969/announce

30. udp://9.rarbg.to:2710/announce

31. udp://9.rarbg.com:2710/announce

32. udp://9.rarbg.me:2710/announce

33. udp://open.demonii.com:1337

34. udp://glotorrents.pw:6969/announce

35. udp://eddie4.nl:6969/announce

36. udp://explodie.org:6969/announce

37. udp://9.rarbg.me:2710/announce

38. udp://9.rarbg.to:2710/announce

39. udp://9.rarbg.com:2710/announce

40. udp://p4p.arenabg.com:1337/announce

41. udp://p4p.arenabg.ch:1337/announce

42. udp://ipv4.tracker.harry.lu:80/announce

43. udp://tracker.zer0day.to:1337/announce

44. udp://tracker.opentrackr.org:1337/announce

45. udp://tracker.leechers-paradise.org:6969/announce

46. udp://tracker.coppersurfer.tk:6969/announce

47. udp://tracker.ilibr.org:80/announce

48. udp://tracker.ilibr.org:6969/announce

Comments

You must log in to add a comment.

Embed Code

Sharing Widget

Related torrents

FILENAME SIZE SEEDS PEERS ADDED UPD
[i] The Contractor (2007) 720p BluRay x264 [Dual Audio] AAC [Hindi 2.0Ch + English 5.1Ch] - MRDhila 908.3 MB 1 0 1 year 2 months
[i] The.Contractor.2007.720p.BluRay.x264-VETO [PublicHD] 4.36 GB 0 1 3 years 2 months
[i] The Contractor (2007) 720p BluRay x264 [Dual Audio] [Hindi - English] - Downloadhub mkv
posted by downloadhub in Movies - Action
858.96 MB 0 0 1 year 10 months

Top Movies ( auto generated report )

FILENAME SIZE SEEDS PEERS ADDED UPD
[i] Kong Skull Island (2017) [1080p] [YTS AG] 1.81 GB 12600 6244 5 days 12 hours
[i] Kong- Skull Island (2017) [720p] [YTS AG] 883.55 MB 9677 9528 5 days 4 days
[i] King.Arthur.Legend.of.the.Sword.2017.1080p.KORSUB.HDRip.x264.AAC2.0-STUTTERSHIT[rarbg] 3.94 GB 7398 3684 5 days 13 hours
[i] King.Arthur.Legend.of.the.Sword.2017.KORSUB.HDRip.x264-STUTTERSHIT[rarbg] 1.03 GB 4512 2499 5 days 4 days
[i] Extortion (2017) [720p] [YTS AG] 807.26 MB 1988 1178 3 days 2 days
[i] King.Arthur.Legend.of.the.Sword.2017.720p.HC.HDRip.X264.AC3-EVO 2.81 GB 1618 1103 5 days 4 days
[i] Transformers The Last Knight 2017 HDTS x264 KOSHARA 1.37 GB 1578 381 5 days 2 days
[i] Extortion (2017) [1080p] [YTS AG] 1.67 GB 1554 884 3 days 2 days
[i] Moontrap Target Earth (2017) [720p] [YTS AG] 627.54 MB 1505 862 5 days 4 days
[i] Smurfs.The.Lost.Village.2017.1080p.WEB-DL.DD5.1.H264-FGT- rarbg.to .torrent 3.44 GB 1312 236 1 day 21 hours