The.Death.Wheelers.1973.720p.BluRay.x264-x0r[PRiME]

DOWNLOAD TORRENT

Posted on May 19, 2017 in Movies » Misc , verified torrent

Size: 1.78 GB , Seeds: 0 , Peers: 0 ( Updated June 22, 2017 - Refresh )

Could not find any peer statistics from any torrent tracker.
This does not mean the torrent is dead.

* Download via Magnet Link * To download files you need a Bittorrent Client ,

Scrape History ( seeds + peers )

Internal Files

The.Death.Wheelers.1973.720p.BluRay.x264-x0r[PRiME]
Please Support!! Read More!!!.txt   334 Byte
The.Death.Wheelers.1973.720p.BluRay.x264-x0r.fanart.jpg   392.1 KB
The.Death.Wheelers.1973.720p.BluRay.x264-x0r.jpg   388.22 KB
The.Death.Wheelers.1973.720p.BluRay.x264-x0r[PRiME].mkv   1.72 GB
The.Death.Wheelers.1973.720p.BluRay.x264-x0r[TRAILER-Theatrical Trailer][PRiME].mkv   55.23 MB

Hash Code

cd69a536b45ee54a72e1e703c10d45a1360679fb

Description


The.Death.Wheelers.1973.720p.BluRay.x264-x0r[PRiME]

ImDb: http://www.imdb.com/title/tt0067630

SCREENSHOT

Complete name : The.Death.Wheelers.1973.720p.BluRay.x264-x0r[TRAILER-Theatrical Trailer][PRiME].mkv
Format : Matroska
Format version : Version 4 / Version 2
File size : 55.2 MiB
Duration : 2 min 50 s
Overall bit rate : 2 719 kb/s
Movie name : Psychomania.1973.720p.BluRay.x264-x0r[TRAILER-Theatrical Trailer]
Encoded date : UTC 2017-05-03 14:28:28
Writing application : mkvmerge v7.7.0 ('Six Voices') 64bit built on Mar 1 2015 01:50:05
Writing library : libebml v1.3.1 + libmatroska v1.4.2

Video
ID : 1
Format : AVC
Format/Info : Advanced Video Codec
Format profile : [email protected]/* */
Format settings, CABAC : Yes
Format settings, ReFrames : 8 frames
Codec ID : V_MPEG4/ISO/AVC
Duration : 2 min 50 s
Bit rate : 2 560 kb/s
Width : 1 280 pixels
Height : 770 pixels
Display aspect ratio : 5:3
Frame rate mode : Constant
Frame rate : 24.000 FPS
Color space : YUV
Chroma subsampling : 4:2:0
Bit depth : 8 bits
Scan type : Progressive
Bits/(Pixel*Frame) : 0.108
Stream size : 51.9 MiB (94%)
Writing library : x264 core 130 r2273 b3065e6
Encoding settings : cabac=1 / ref=8 / deblock=1:-2:-2 / analyse=0x3:0x133 / me=umh / subme=10 / psy=1 / psy_rd=1.00:0.25 / mixed_ref=0 / me_range=64 / chroma_me=1 / trellis=2 / 8x8dct=1 / cqm=0 / deadzone=6,6 / fast_pskip=0 / chroma_qp_offset=-4 / threads=12 / lookahead_threads=1 / sliced_threads=0 / nr=0 / decimate=0 / interlaced=0 / bluray_compat=0 / constrained_intra=0 / bframes=4 / b_pyramid=2 / b_adapt=2 / b_bias=0 / direct=3 / weightb=1 / open_gop=0 / weightp=2 / keyint=240 / keyint_min=24 / scenecut=40 / intra_refresh=0 / rc_lookahead=10 / rc=2pass / mbtree=1 / bitrate=2560 / ratetol=1.0 / qcomp=0.00 / qpmin=0 / qpmax=69 / qpstep=4 / cplxblur=20.0 / qblur=0.5 / vbv_maxrate=20000 / vbv_bufsize=25000 / nal_hrd=none / ip_ratio=1.10 / aq=1:1.00
Language : English
Default : Yes
Forced : No
Color range : Limited
Color primaries : BT.709
Transfer characteristics : BT.709
Matrix coefficients : BT.709

Audio
ID : 2
Format : AC-3
Format/Info : Audio Coding 3
Mode extension : CM (complete main)
Format settings, Endianness : Big
Codec ID : A_AC3
Duration : 2 min 50 s
Bit rate mode : Constant
Bit rate : 160 kb/s
Channel(s) : 1 channel
Channel positions : Front: C
Sampling rate : 48.0 kHz
Frame rate : 31.250 FPS (1536 spf)
Compression mode : Lossy
Stream size : 3.25 MiB (6%)
Language : English
Default : Yes
Forced : No

Menu
00:00:00.000 : en:Chapter 1

SCREENSHOT

Click Image To View Full Size

SCREENSHOT
Click To View Screenshot
Click To View Screenshot
Click To View Screenshot

Torrent location

https://www.1337x.to/torrent/2219111/The-Death-Wheelers-1973-720p-BluRay-x264-x0r-PRiME/

Trackers

Refresh Leechers : Updated June 22, 2017

1. http://explodie.org:6969/announce

2. http://tracker.tfile.me/announce

3. http://bigfoot1942.sektori.org:6969/announce

4. http://tracker2.wasabii.com.tw:6969/announce

5. http://tracker.mg64.net:6881/announce

6. http://bt.artvid.ru:6969/announce

7. http://tracker1.wasabii.com.tw:6969/announce

8. http://open.acgtracker.com:1096/announce

9. http://tracker.opentrackr.org/announce

10. http://mvgroup.org:2710/announce

11. udp://mgtracker.org:6969/announce

12. udp://asnet.pw:2710/announce

13. udp://tracker.mgtracker.org:2710/announce

14. udp://tracker4.piratux.com:6969/announce

15. udp://tracker.trackerfix.com:80/announce

16. udp://tracker.pomf.se:80/announce

17. udp://torrent.gresille.org:80/announce

18. udp://p4p.arenabg.com:1337

19. udp://ipv4.tracker.harry.lu:80/announce

20. udp://inferno.demonoid.ooo:3389/announce

21. udp://tracker.blackunicorn.xyz:6969/announce

22. udp://tracker.internetwarriors.net:1337/announce

23. udp://tracker.openbittorrent.com:80/announce

24. udp://eddie4.nl:6969/announce

25. udp://tracker.leechers-paradise.org:6969/announce

26. udp://tracker.opentrackr.org:1337/announce

27. udp://tracker.zer0day.to:1337/announce

28. udp://p4p.arenabg.ch:1337/announce

29. udp://tracker.coppersurfer.tk:6969/announce

30. udp://9.rarbg.to:2710/announce

31. udp://9.rarbg.com:2710/announce

32. udp://9.rarbg.me:2710/announce

33. udp://open.demonii.com:1337

34. udp://glotorrents.pw:6969/announce

35. udp://eddie4.nl:6969/announce

36. udp://explodie.org:6969/announce

37. udp://9.rarbg.me:2710/announce

38. udp://9.rarbg.to:2710/announce

39. udp://9.rarbg.com:2710/announce

40. udp://p4p.arenabg.com:1337/announce

41. udp://p4p.arenabg.ch:1337/announce

42. udp://ipv4.tracker.harry.lu:80/announce

43. udp://tracker.zer0day.to:1337/announce

44. udp://tracker.opentrackr.org:1337/announce

45. udp://tracker.leechers-paradise.org:6969/announce

46. udp://tracker.coppersurfer.tk:6969/announce

47. udp://tracker.ilibr.org:80/announce

48. udp://tracker.ilibr.org:6969/announce

Comments

You must log in to add a comment.

Embed Code

Sharing Widget

Related torrents

FILENAME SIZE SEEDS PEERS ADDED UPD
[i] The Death Wheelers (1973) [1080p] [YTS AG] 1.36 GB 23 12 1 month 3 weeks
[i] The Death Wheelers (1973) [720p] [YTS AG] 652.8 MB 21 0 1 month 3 weeks

Top Movies ( auto generated report )

FILENAME SIZE SEEDS PEERS ADDED UPD
[i] Kong Skull Island (2017) [1080p] [YTS AG] 1.81 GB 12600 6244 5 days 11 hours
[i] Kong- Skull Island (2017) [720p] [YTS AG] 883.55 MB 9677 9528 5 days 4 days
[i] King.Arthur.Legend.of.the.Sword.2017.1080p.KORSUB.HDRip.x264.AAC2.0-STUTTERSHIT[rarbg] 3.94 GB 7398 3684 5 days 13 hours
[i] King.Arthur.Legend.of.the.Sword.2017.KORSUB.HDRip.x264-STUTTERSHIT[rarbg] 1.03 GB 4512 2499 5 days 4 days
[i] Extortion (2017) [720p] [YTS AG] 807.26 MB 1988 1178 3 days 2 days
[i] King.Arthur.Legend.of.the.Sword.2017.720p.HC.HDRip.X264.AC3-EVO 2.81 GB 1618 1103 5 days 4 days
[i] Transformers The Last Knight 2017 HDTS x264 KOSHARA 1.37 GB 1578 381 5 days 2 days
[i] Extortion (2017) [1080p] [YTS AG] 1.67 GB 1554 884 3 days 2 days
[i] Moontrap Target Earth (2017) [720p] [YTS AG] 627.54 MB 1505 862 5 days 4 days
[i] Smurfs.The.Lost.Village.2017.1080p.WEB-DL.DD5.1.H264-FGT- rarbg.to .torrent 3.44 GB 1312 236 1 day 21 hours