Bit Torrent Scene a public file sharing platform Home Categories About

Warning! Use a VPN When Downloading Torrents!
Your IP Address is . Location is
Avoid LAWSUITS and FINES! Hide your IP ADDRESS with a VPN!
We strongly recommend using Trust.Zone VPN to anonymize your torrenting. It's FREE!
Get VPN Now for FREE!

The.Jungle.Book.2016.1080p.BluRay.x264.DTS-FGT

DOWNLOAD TORRENT

Posted on August 6, 2016 in Movies » Adventure , verified torrent

Size: 6.81 GB , Seeds: 152 , Peers: 21 ( Updated November 13, 2016 - Refresh )

* Download via Magnet Link

Loading...

Scrape History ( seeds + peers )

Internal Files

The.Jungle.Book.2016.1080p.BluRay.x264.DTS-FGT
English.srt   81.93 KB
RARBG.com.txt   34 Byte
The.Jungle.Book.2016.1080p.BluRay.x264.DTS-FGT.mkv   6.81 GB
The.Jungle.Book.2016.1080p.BluRay.x264.DTS-FGT.nfo   5.37 KB

Hash Code

7db0351a62a361d2f161052a01a2655a4352b2e7

Description

====================================================================

The.Jungle.Book.2016.1080p.BluRay.x264.DTS-FGT



====================================================================

SCREENSHOT

====================================================================

====================================================================

Video

ID : 1

Format : AVC

Format/Info : Advanced Video Codec

Format profile : [email protected]/* */

Format settings, CABAC : Yes

Format settings, ReFrames : 4 frames

Codec ID : V_MPEG4/ISO/AVC

Duration : 1h 45mn

Bit rate : 7 515 Kbps

Width : 1 920 pixels

Height : 1 040 pixels

Display aspect ratio : 1.85:1

Frame rate mode : Constant

Frame rate : 23.976 (24000/1001) fps

Color space : YUV

Chroma subsampling : 4:2:0

Bit depth : 8 bits

Scan type : Progressive

Bits/(Pixel*Frame) : 0.157

Stream size : 5.56 GiB (82%)

Writing library : x264 core 148 r2705 3f5ed56

Language : English

Default : Yes

Forced : No


====================================================================

Audio

ID : 2

Format : DTS

Format/Info : Digital Theater Systems

Mode : 16

Format settings, Endianness : Big

Codec ID : A_DTS

Duration : 1h 45mn

Bit rate mode : Constant

Bit rate : 1 509 Kbps

Channel(s) : 6 channels

Channel positions : Front: L C R, Side: L R, LFE

Sampling rate : 48.0 KHz

Frame rate : 93.750 fps (512 spf)

Bit depth : 24 bits

Compression mode : Lossy

Stream size : 1.12 GiB (16%)

Language : English

Default : Yes

Forced : No


====================================================================

Text

ID : 3

Format : UTF-8

Codec ID : S_TEXT/UTF8

Codec ID/Info : UTF-8 Plain Text

Language : English

Default : Yes

Forced : No


====================================================================

Menu

00:00:00.000 : en:00:00:00.000

00:00:48.215 : en:00:00:48.215

00:05:15.315 : en:00:05:15.315

00:09:02.459 : en:00:09:02.459

00:12:42.178 : en:00:12:42.178

00:16:34.452 : en:00:16:34.452

00:21:20.029 : en:00:21:20.029

00:27:15.133 : en:00:27:15.133

00:35:04.144 : en:00:35:04.144

00:43:21.724 : en:00:43:21.724

00:48:05.132 : en:00:48:05.132

00:53:29.248 : en:00:53:29.248

00:58:03.271 : en:00:58:03.271

01:05:46.442 : en:01:05:46.442

01:10:35.523 : en:01:10:35.523

01:17:01.325 : en:01:17:01.325

01:20:48.927 : en:01:20:48.927

01:24:46.540 : en:01:24:46.540

01:30:32.969 : en:01:30:32.969

01:35:53.206 : en:01:35:53.206

====================================================================

Special Thanks to FGT

====================================================================

:::::::Screens:::::

====================================================================

SCREENSHOT

SCREENSHOT

SCREENSHOT

SCREENSHOT

SCREENSHOT

SCREENSHOT

====================================================================

Greetz To: SaM |oziman|juggs|LRS|SureNdrA|Psix|Masta|MgB|3Li|tomcat12|BADASSMEDIA|OZLEM|ETRG and Other Admins of Extratorrent|.



====================================================================

Torrent location

http://peertorrent.com/torrent/5091773/The.Jungle.Book.2016.1080p.BluRay.x264.DTS-FGT.html

Trackers

Refresh Leechers : Updated November 13, 2016

1. http://tracker.trackerfix.com:80/announce

2. udp://9.rarbg.me:2710/announce

3. udp://9.rarbg.to:2710/announce

Comments

You must log in to add a comment.

Embed Code

Sharing Widget

Related torrents

FILENAME SIZE SEEDS PEERS ADDED UPD
[i]
[i]
The Jungle Book (2016) NEW - 720p HDTS - 900MB - ShAaNiG
Movies - Adventure , Quality: Audio 8/10 - Video 8/10
900.3 MB 4984 215 11 months 7 months
[i] The.Jungle.Book.2016.TRUEFRENCH.BDRIP.XViD-eVe 1.35 GB 4428 130 7 months 6 months
[i]
[i]
The.Jungle.Book.2016.720p.BRRip.x264.AAC-ETRG
Movies - Adventure , Quality: Audio 10/10 - Video 10/10
833.3 MB 2137 254 7 months 4 months
[i] The Jungle Book 2016 1080p BluRay x264 DTS-JYK 2.68 GB 2069 355 7 months 4 months
[i]
[i]
The.Jungle.Book.2016.Complete.HDTS.XVID.AC3.HQ.Hive-CM8
Movies - Adventure , Quality: Audio 7/10 - Video 6/10
1.38 GB 918 13 11 months 8 months
[i] The.Jungle.Book.2016.1080p.TC.X264.Masteredition.Hive-CM8 3.97 GB 647 136 10 months 7 months
[i] The Jungle Book - Il Libro della Giungla (2016).H264.Italian.English.Ac3.5.1.sub.Ita.Eng.iCV-MIRCrew
posted by robbyrs in Movies - Adventure
1.47 GB 370 14 7 months 4 months
[i] The.Jungle.Book.2016.1080p.BRRip.x264.AAC-ETRG 1.55 GB 348 45 7 months 4 months
[i] The Jungle Book (2016) 1080p HDTC - 1.75GB - ShAaNiG 1.75 GB 337 7 10 months 4 months
[i] The.Jungle.Book.2016.BRRip.XViD-ETRG 715.3 MB 310 90 7 months 4 months

Top Movies ( auto generated report )

FILENAME SIZE SEEDS PEERS ADDED UPD
[i] Rogue.One.2016.BRRip.XViD.AC3-ETRG 1.4 GB 5596 1416 6 days 9 hours
[i] Why Him- (2016) [720p] [YTS AG] 805.91 MB 4285 1556 1 week 1 day
[i] The.Great.Wall.2016.1080p.KORSUB.HDRip.x264.AAC2.0-STUTTERSHIT 3.9 GB 3857 1479 1 week 1 day
[i] Why Him- (2016) [1080p] [YTS AG] 1.68 GB 3531 1409 1 week 1 day
[i] Beauty.and.the.Beast.2017.HDCAM.700MB.x264-DiRG.torrent 711.07 MB 3523 2833 3 days 2 days
[i] Resident Evil- The Final Chapter (2016) [720p] [YTS AG] 796.72 MB 3973 6393 2 hours 42 min
[i] Split.2016.1080p.KORSUB.HDRip.x264.AAC2.0-STUTTERSHIT 4.2 GB 2665 2481 20 hours 18 hours
[i] Vengeance.2017.HDRip.XViD-ETRG 705.3 MB 2431 1138 3 days 1 day
[i] Finding Dory (2016) [1080p] [YTS AG] 1.47 GB 2024 407 6 days 53 min
[i] Suicide Squad (2016) [720p] [YTS AG] 999.95 MB 1910 273 6 days 53 min
advertising ( remove )