Bit Torrent Scene a public file sharing platform Home Categories Blog About

advertising ( remove )

The.Jungle.Book.2016.Complete.HDTS.XVID.AC3.HQ.Hive-CM8

DOWNLOAD TORRENT

Posted on April 18, 2016 in Movies » Adventure , verified torrent

Size: 1.38 GB , Seeds: 918 , Peers: 13 ( Updated July 26, 2016 - Refresh )

Quality: Audio 7/10 - Video 6/10 ( defined by users )

* Download via Magnet Link * To download files you need a Bittorrent Client ,

advertising ( remove )

External Info

Trailer | Wikipedia | Other Info

Internal Files

The.Jungle.Book.2016.Complete.HDTS.XVID.AC3.HQ.Hive-CM8
The.Jungle.Book.2016.Complete.HDTS.XVID.AC3.HQ.Hive-CM8.avi   1.38 GB
Torrent Downloaded From peertorrent.com.txt   338 Byte

Hash Code

98bcb7d393698d1d7ddfd04e95e2a19182116741

Description

SCREENSHOT





https://www.imdb.com/title/tt3040964/





An orphan boy is raised in the jungle with the help of a pack of wolves, a bear, and a black panther.



Director: Jon Favreau

Writers: Justin Marks (screenplay), Rudyard Kipling (book)

Stars: Neel Sethi, Bill Murray, Ben Kingsley

Genres: Adventure | Drama | Family | Fantasy

Country: USA

Language: English





The.Jungle.Book.2016.Complete.HDTS.XVID.AC3.HQ.Hive-CM8



Thx Hive



CM8 Doing It Right The First Time



Sources:



Video: DVD-R HDCAM

Audio: Exclusive Direct Line + Cadance Line

thx





Notes:

had the source files for nearly 2 weeks, but was stuck with no audio for it,

at least i had time to prepare my video. quality was good, dark scenes were ok but improveable.



finally exclusive video+line went up, but 1min was missing in the middle of the movie, which i had now no audio.

also video looked like a reencode of a reencode even had a watermark in it.



mine is clean and a lot better quality and has the missing minute inside.

thankfully cadance came up with the missing audio so i can do a full movie now.





Encode:

quality on video was already very nice, daylight scenes were bright enough but darker scenes needed more,

so i split the video in pieces and made all dark scenes brighter, very watchable now.



Line Audio was nice, lipsynced to my video.



got very nice and will do me till retail

enjoy





Video: 720x304 @bitrate 1800 2pass

Audio: Line AC3 2.0 Stereo

Sample: yes included







https://www.imdb.com/title/tt3040964/





General

Complete name : The.Jungle.Book.2016.Complete.HDTS.XVID.AC3.HQ.Hive-CM8.avi

Format : AVI

Format/Info : Audio Video Interleave

File size : 1.38 GiB

Duration : 1h 35mn

Overall bit rate : 2 068 Kbps

Writing application : Nandub v1.0rc2

Writing library : Nandub build 1853/release



Video

ID : 0

Format : MPEG-4 Visual

Format profile : Advanced [email protected]/* */

Format settings, BVOP : 2

Format settings, QPel : Yes

Format settings, GMC : No warppoints

Format settings, Matrix : Default (H.263)

Muxing mode : Packed bitstream

Codec ID : XVID

Codec ID/Hint : XviD

Duration : 1h 35mn

Bit rate : 1 800 Kbps

Width : 720 pixels

Height : 304 pixels

Display aspect ratio : 2.35:1

Frame rate : 29.970 fps

Color space : YUV

Chroma subsampling : 4:2:0

Bit depth : 8 bits

Scan type : Progressive

Compression mode : Lossy

Bits/(Pixel*Frame) : 0.274

Stream size : 1.20 GiB (87%)

Writing library : XviD 1.2.1 (UTC 2008-12-04)



Audio

ID : 1

Format : AC-3

Format/Info : Audio Coding 3

Mode extension : CM (complete main)

Format settings, Endianness : Big

Codec ID : 2000

Duration : 1h 35mn

Bit rate mode : Constant

Bit rate : 256 Kbps

Channel(s) : 2 channels

Channel positions : Front: L R

Sampling rate : 48.0 KHz

Bit depth : 16 bits

Compression mode : Lossy

Delay relative to video : 50ms

Stream size : 175 MiB (12%)

Alignment : Split accross interleaves

Interleave, duration : 33 ms (1.00 video frame)

Interleave, preload duration : 500 ms





SCREENSHOT SCREENSHOT SCREENSHOT SCREENSHOT SCREENSHOT SCREENSHOT

Torrent location

https://peertorrent.com/torrent/4846955/The.Jungle.Book.2016.Complete.HDTS.XVID.AC3.HQ.Hive-CM8.html

Scrape History ( seeds + peers )

Trackers

Refresh Leechers : Updated July 26, 2016

1. udp://tracker.coppersurfer.tk:6969/announce

2. udp://thetracker.org:80/announce

3. udp://tracker.coppersurfer.tk:6969

4. udp://tracker.leechers-paradise.org:6969/announce

5. udp://eddie4.nl:6969/announce

6. udp://zer0day.ch:1337/announce

7. udp://tracker.sktorrent.net:6969/announce

8. udp://9.rarbg.me:2710/announce

9. udp://9.rarbg.to:2710/announce

10. udp://tracker.blackunicorn.xyz:6969/announce

11. udp://tracker.aletorrenty.pl:2710/announce

12. udp://tracker.piratepublic.com:1337/announce

13. udp://tracker.opentrackr.org:1337/announce

14. udp://glotorrents.pw:6969/announce

15. udp://p4p.arenabg.ch:1337/announce

Comments

You must log in to add a comment.

Fermin •117 2016-04-19 10:49:05

AUDIO: 7 - VIDEO: 6

very good Cam thanx for sharing

Embed Code

Sharing Widget

Related torrents

FILENAME SIZE SEEDS PEERS ADDED UPD
[i] The.Jungle.Book.2016.TRUEFRENCH.BDRIP.XViD-eVe 1.35 GB 9124 869 1 week 3 days
[i] The Jungle Book 2016 1080p BluRay x264 DTS-JYK 2.68 GB 5252 2628 2 weeks 1 week
[i]
[i]
The Jungle Book (2016) NEW - 720p HDTS - 900MB - ShAaNiG
Movies - Adventure , Quality: Audio 8/10 - Video 8/10
900.3 MB 4984 215 4 months 3 weeks
[i]
[i]
The.Jungle.Book.2016.720p.BRRip.x264.AAC-ETRG
Movies - Adventure , Quality: Audio 10/10 - Video 10/10
833.3 MB 4058 1025 3 weeks 1 week
[i] The.Jungle.Book.2016.1080p.BRRip.x264.AAC-ETRG 1.55 GB 1622 316 3 weeks 2 weeks
[i] The.Jungle.Book.2016.1080p.BluRay.x264.DTS-FGT 6.81 GB 1065 475 3 weeks 1 week
[i] The.Jungle.Book.2016.BRRip.XViD-ETRG 715.3 MB 968 439 3 weeks 1 week
[i] The Jungle Book (2016) 1080p HDTC - 1.75GB - ShAaNiG 1.75 GB 697 15 3 months 5 days
[i] The.Jungle.Book.2016.DVDRip.XviD.AC3-EVO 1.42 GB 654 129 3 weeks 1 week
[i] The Jungle Book (2016) 1080p BluRay - 6CH - 2GB - ShAaNiG 2 GB 649 58 3 weeks 2 weeks

Top Movies ( auto generated report )

FILENAME SIZE SEEDS PEERS ADDED UPD
[i] Now.You.See.Me.2.2016.1080p.BluRay.x264.AC3-JYK 2.93 GB 8132 5852 1 day 22 hours
[i] Blood.Father.2016.HDRip.XViD-ETRG 711.3 MB 7851 3968 2 days 13 hours
[i] The Conjuring 2 (2016) 720p BluRay - 1.2GB - ShAaNiG 1.2 GB 7125 5490 1 day 14 hours
[i] Jason.Bourne.720p.HDTC.X264-NUKU 2.49 GB 8020 6984 3 hours 1 hour
[i] Jason Bourne (2016) 720p HDTC 850MB - MkvCage 904.3 MB 4312 2138 1 day 10 hours
[i] Blood.Father.2016.720p.WEBRip.x264.AAC-ETRG 662.3 MB 4159 2580 1 day 4 hours
[i] War Dogs 2016 HD-TS x264-CPG 2.1 GB 3948 3105 1 day 3 hours
[i] The.Conjuring.2.2016.720p.BRRip.x264.AAC-ETRG 1004.3 MB 3885 3190 1 day 4 hours
[i] Our.Kind.of.Traitor.2016.HDRip.XviD.AC3-EVO 1.41 GB 3922 4367 3 hours 1 hour
[i] Genius.2016.HDRip.XviD.AC3-EVO 1.39 GB 2250 1125 4 days 3 days
advertising ( remove )