The Legend of Tarzan - 2016 - CAM - English - x264 - AAC - Makintos13

DOWNLOAD TORRENT

Posted on July 3, 2016 in Movies » Adventure , verified torrent

Size: 699.07 MB , Seeds: 233 , Peers: 9 ( Updated September 5, 2016 - Refresh )

Quality: Audio 4/10 - Video 4/10 ( defined by users )

* Download via Magnet Link * To download files you need a Bittorrent Client ,

Scrape History ( seeds + peers )

Internal Files

The Legend of Tarzan - 2016 - CAM - English - x264 - AAC - Makintos13.mkv
The Legend of Tarzan - 2016 - CAM - English - x264 - AAC - Makintos13.mkv   698.82 MB

Hash Code

c3c1eb964a4a1dd1b5bf2dfb1fa683b29e1c8899

Description

The Legend of Tarzan - 2016 - CAM - English - x264 - AAC - Makintos13



SCREENSHOT





Format : Matroska

Format version : Version 4 / Version 2

File size : 699 MiB

Duration : 1h 39mn

Overall bit rate : 979 Kbps



Video

ID : 2

Format : AVC

Format/Info : Advanced Video Codec

Format profile : [email protected]/* */

Format settings, CABAC : Yes

Format settings, ReFrames : 4 frames

Codec ID : V_MPEG4/ISO/AVC

Duration : 1h 39mn

Bit rate : 912 Kbps

Width : 720 pixels

Height : 480 pixels

Display aspect ratio : 3:2

Frame rate mode : Constant

Frame rate : 23.976 (24000/1001) fps

Color space : YUV

Chroma subsampling : 4:2:0

Bit depth : 8 bits

Scan type : Progressive

Bits/(Pixel*Frame) : 0.110

Stream size : 651 MiB (93%)

Default : Yes

Forced : No




Audio

ID : 1

Format : AAC

Format/Info : Advanced Audio Codec

Format profile : LC

Codec ID : A_AAC

Duration : 1h 39mn

Bit rate : 64.4 Kbps

Channel(s) : 2 channels

Channel positions : Front: L R

Sampling rate : 48.0 KHz

Frame rate : 46.875 fps (1024 spf)

Compression mode : Lossy

Delay relative to video : 62ms

Stream size : 46.0 MiB (7%)

Title : Stereo

Default : Yes

Forced : No




www.imdb.com/title/tt0918940/





Screens:



SCREENSHOT SCREENSHOT SCREENSHOT SCREENSHOT SCREENSHOT SCREENSHOT SCREENSHOT

Trackers

Refresh Leechers : Updated September 5, 2016

1. udp://tracker.coppersurfer.tk:6969/announce

2. udp://tracker.coppersurfer.tk:6969

3. udp://tracker.opentrackr.org:1337/announce

4. udp://tracker.leechers-paradise.org:6969/announce

5. udp://eddie4.nl:6969/announce

6. udp://tracker.leechers-paradise.org:6969

7. udp://zer0day.ch:1337/announce

8. udp://tracker.aletorrenty.pl:2710/announce

9. udp://p4p.arenabg.ch:1337/announce

10. udp://9.rarbg.me:2710/announce

11. udp://tracker.sktorrent.net:6969/announce

12. udp://explodie.org:6969/announce

13. udp://tracker.trackerfix.com:80/announce

14. udp://9.rarbg.to:2710/announce

15. udp://tracker.piratepublic.com:1337/announce

Comments

You must log in to add a comment.

nutty26 •203 2016-07-05 23:13:09
thanks but ill wait,coz a movie like this it has to be clear,thank you alot,
Orwell •265 2016-07-04 06:20:20

AUDIO: 4 - VIDEO: 4

Not the best copy

Embed Code

Sharing Widget

Related torrents

FILENAME SIZE SEEDS PEERS ADDED UPD
[i]
[i]
The Legend of Tarzan 2016 HD-TS x264-CPG
Movies - Action , Quality: Audio 6/10 - Video 6/10
1.75 GB 1129 180 11 months 6 months
[i]
[i]
The Legend of Tarzan (2016) CAM-Rip [RUSSIAN]
Movies - Adventure , Quality: Audio 7/10 - Video 7/10
1.37 GB 1095 20 11 months 9 months
[i] The Legend of Tarzan (2016) [720p] [YTS AG] 826.51 MB 1092 219 1 week 4 days
[i] The Legend of Tarzan (2016) [1080p] [YTS AG] 1.69 GB 993 150 1 week 2 days
[i] The Legend of Tarzan (2016) 1080p BluRay - 6CH - 2GB - ShAaNiG 1.98 GB 770 89 9 months 1 month
[i] The.Legend.of.Tarzan.2016.HDRip.XViD.AC3-ETRG 1.39 GB 736 257 9 months 7 months
[i]
[i]
The.Legend.of.Tarzan.2016.HDTS.XviD-VAiN
Movies - Action , Quality: Audio 6/10 - Video 6/10
1.48 GB 576 115 11 months 9 months
[i] The.Legend.of.Tarzan.2016.BRRip.XViD-ETRG 705.3 MB 235 84 9 months 7 months
[i] The Legend of Tarzan 2016 1080p WEB-DL x264 AC3-JYK 3.02 GB 207 10 9 months 8 months
[i] The Legend of Tarzan (2016) HDTS - 550MB - ShAaNiG 557.3 MB 197 14 11 months 9 months

Top Movies ( auto generated report )

FILENAME SIZE SEEDS PEERS ADDED UPD
[i] Power Rangers (2017) [1080p] [YTS AG] 1.88 GB 7179 2172 6 days 1 hour
[i] Power Rangers (2017) [720p] [YTS AG] 910.34 MB 6135 2285 6 days 1 hour
[i] The Zookeeper's Wife (2017) [720p] [YTS AG] 929.77 MB 2635 2119 2 days 1 day
[i] Song to Song (2017) [720p] [YTS AG] 946.25 MB 1892 1442 5 days 4 days
[i] Song to Song (2017) [1080p] [YTS AG] 1.96 GB 1560 917 5 days 4 days
[i] Cars 3 2017 TS XViD AC3-N O K 1.4 GB 1184 1399 2 days 1 day
[i] Alone in Berlin (2016) [1080p] [YTS AG] 1.57 GB 1082 638 5 days 4 days
[i] Red Dog True Blue (2016) [720p] [YTS AG] 649 MB 934 389 3 days 2 days
[i] Alone in Berlin (2016) [720p] [YTS AG] 763.93 MB 924 165 5 days 1 day
[i] Apprentice (2016) [720p] [YTS AG] 715.21 MB 1351 820 1 day 1 hour