Bit Torrent Scene a public file sharing platform Home Categories Blog About

advertising ( remove )

The Legend of Tarzan - 2016 - CAM - English - x264 - AAC - Makintos13

DOWNLOAD TORRENT

Posted on July 3, 2016 in Movies » Adventure , verified torrent

Size: 699.07 MB , Seeds: 551 , Peers: 23 ( Updated July 29, 2016 - Refresh )

Quality: Audio 4/10 - Video 4/10 ( defined by users )

* Download via Magnet Link * To download files you need a Bittorrent Client ,

advertising ( remove )

External Info

Trailer | Wikipedia | Other Info

Internal Files

The Legend of Tarzan - 2016 - CAM - English - x264 - AAC - Makintos13.mkv
The Legend of Tarzan - 2016 - CAM - English - x264 - AAC - Makintos13.mkv   698.82 MB

Hash Code

c3c1eb964a4a1dd1b5bf2dfb1fa683b29e1c8899

Description

The Legend of Tarzan - 2016 - CAM - English - x264 - AAC - Makintos13



SCREENSHOT





Format : Matroska

Format version : Version 4 / Version 2

File size : 699 MiB

Duration : 1h 39mn

Overall bit rate : 979 Kbps



Video

ID : 2

Format : AVC

Format/Info : Advanced Video Codec

Format profile : [email protected]/* */

Format settings, CABAC : Yes

Format settings, ReFrames : 4 frames

Codec ID : V_MPEG4/ISO/AVC

Duration : 1h 39mn

Bit rate : 912 Kbps

Width : 720 pixels

Height : 480 pixels

Display aspect ratio : 3:2

Frame rate mode : Constant

Frame rate : 23.976 (24000/1001) fps

Color space : YUV

Chroma subsampling : 4:2:0

Bit depth : 8 bits

Scan type : Progressive

Bits/(Pixel*Frame) : 0.110

Stream size : 651 MiB (93%)

Default : Yes

Forced : No




Audio

ID : 1

Format : AAC

Format/Info : Advanced Audio Codec

Format profile : LC

Codec ID : A_AAC

Duration : 1h 39mn

Bit rate : 64.4 Kbps

Channel(s) : 2 channels

Channel positions : Front: L R

Sampling rate : 48.0 KHz

Frame rate : 46.875 fps (1024 spf)

Compression mode : Lossy

Delay relative to video : 62ms

Stream size : 46.0 MiB (7%)

Title : Stereo

Default : Yes

Forced : No




www.imdb.com/title/tt0918940/





Screens:



SCREENSHOT SCREENSHOT SCREENSHOT SCREENSHOT SCREENSHOT SCREENSHOT SCREENSHOT

Torrent location

https://peertorrent.com/torrent/5018251/The+Legend+of+Tarzan+-+2016+-+CAM+-+English+-+x264+-+AAC+-+Makintos13.html

Scrape History ( seeds + peers )

Trackers

Refresh Leechers : Updated July 29, 2016

1. udp://tracker.coppersurfer.tk:6969/announce

2. udp://tracker.coppersurfer.tk:6969

3. udp://tracker.opentrackr.org:1337/announce

4. udp://tracker.leechers-paradise.org:6969/announce

5. udp://eddie4.nl:6969/announce

6. udp://tracker.leechers-paradise.org:6969

7. udp://zer0day.ch:1337/announce

8. udp://tracker.aletorrenty.pl:2710/announce

9. udp://p4p.arenabg.ch:1337/announce

10. udp://9.rarbg.me:2710/announce

11. udp://tracker.sktorrent.net:6969/announce

12. udp://explodie.org:6969/announce

13. udp://tracker.trackerfix.com:80/announce

14. udp://9.rarbg.to:2710/announce

15. udp://tracker.piratepublic.com:1337/announce

Comments

You must log in to add a comment.

nutty26 •203 2016-07-05 23:13:09
thanks but ill wait,coz a movie like this it has to be clear,thank you alot,
Orwell •263 2016-07-04 06:20:20

AUDIO: 4 - VIDEO: 4

Not the best copy

Embed Code

Sharing Widget

Related torrents

FILENAME SIZE SEEDS PEERS ADDED UPD
[i]
[i]
The Legend of Tarzan 2016 HD-TS x264-CPG
Movies - Action , Quality: Audio 6/10 - Video 6/10
1.75 GB 7445 2223 1 month 1 month
[i] The.Legend.of.Tarzan.2016.HC.HDRip.XviD.AC3-EVO 1.39 GB 6127 1864 3 weeks 1 week
[i] The Legend of Tarzan 2016 720p HC HDRip 800 MB - iExTV 800.3 MB 2303 538 3 weeks 1 week
[i]
[i]
The Legend of Tarzan (2016) CAM-Rip [RUSSIAN]
Movies - Adventure , Quality: Audio 7/10 - Video 7/10
1.37 GB 1902 34 1 month 2 weeks
[i] The Legend of Tarzan (2016) 1080p HC HDRip 1.6GB - MkvCage 1.66 GB 1784 266 3 weeks 1 week
[i] The Legend of Tarzan (2016) HC - 720p HDRiP - 950MB - ShAaNiG 951.3 MB 1267 920 3 weeks 3 weeks
[i]
[i]
The.Legend.of.Tarzan.2016.HDTS.XviD-VAiN
Movies - Action , Quality: Audio 6/10 - Video 6/10
1.48 GB 1092 234 1 month 2 weeks
[i]
[i]
The Legend of Tarzan 2016 1080p HDRip KORSUB x264 AAC[PRiME]
Movies - Action , Quality: Audio 10/10 - Video 9/10
3.02 GB 885 142 3 weeks 1 week
[i] The Legend of Tarzan (2016) HC - 1080p HDRiP - 2GB - ShAaNiG 2 GB 871 907 3 weeks 3 weeks
[i] The Legend of Tarzan (2016) 720p HC HDRip x264 [Dual-Audio][Hindi - English] ESubs - Downloadhub
posted by downloadhub in Movies - Adventure
968.86 MB 443 225 3 weeks 1 week

Top Movies ( auto generated report )

FILENAME SIZE SEEDS PEERS ADDED UPD
[i] Now.You.See.Me.2.2016.1080p.BluRay.x264.AC3-JYK 2.93 GB 8132 5852 2 days 1 day
[i] Blood.Father.2016.HDRip.XViD-ETRG 711.3 MB 7851 3968 2 days 1 day
[i] The Conjuring 2 (2016) 720p BluRay - 1.2GB - ShAaNiG 1.2 GB 7125 5490 2 days 1 day
[i] Jason.Bourne.720p.HDTC.X264-NUKU
Movies - Action , Quality: Audio 8/10 - Video 8/10
2.49 GB 8020 6984 15 hours 13 hours
[i] Jason Bourne (2016) 720p HDTC 850MB - MkvCage 904.3 MB 4312 2138 1 day 22 hours
[i] Blood.Father.2016.720p.WEBRip.x264.AAC-ETRG 662.3 MB 4159 2580 1 day 16 hours
[i] War Dogs 2016 HD-TS x264-CPG 2.1 GB 3948 3105 1 day 15 hours
[i] The.Conjuring.2.2016.720p.BRRip.x264.AAC-ETRG 1004.3 MB 3885 3190 1 day 16 hours
[i] Our.Kind.of.Traitor.2016.HDRip.XviD.AC3-EVO 1.41 GB 3922 4367 15 hours 13 hours
[i] Genius.2016.HDRip.XviD.AC3-EVO 1.39 GB 2250 1125 4 days 3 days
advertising ( remove )